ML
     
  Уважаемый Гость!
Вы можете поддержать проект и зарегистрироваться у наших партнеров - онлайн-стратегия MyLands. При регистрации в игре Вы получите код, который сможете активировать после регистрации на pirat.ca и получить 1000 дублонов.

Ваш код:
5af7de75d3db09b6a37bc8bab71b0e87ccde73d6
 
     

Джейн Эйр / Jane Eyre (Сезон: 1 / Серии: 1-11 из 11) (Джулиан Эмис / Julian Amyes) [1983 г., история, мелодрама, DVDRip] [Полная версия сериала] MVO ВидеоСервис

Ответить на тему
 
Автор
Сообщение

Пост 01-Апр-2012 16:29

[Q] 

Linnan

Джейн Эйр / Jane Eyre (Полная версия сериала)
(Сезон: 1 / Серии: 1-11 из 11)
Год выпуска: 1983
Мировая премьера: 9 октября 1983
Дата выхода DVD: 5 марта 2009
Производство: Великобритания ВВС
Жанр: история, мелодрама
Продолжительность серии: ~ 00:28:00
Перевод: Профессиональный (многоголосый, закадровый) ВидеоСервис
Оригинальный аудиопоток: английский
Субтитры: отсутствуют
Режиссер: Джулиан Эмис / Julian Amyes
В ролях
Зила Кларк, Тимоти Далтон, Роберт Джеймс, Джуди Корнвэлл, Джин Харви, Колин Дживонс, Шан Паттенден, Кейт Дэвид, Сэлли Осборн, Алан Кокс
Описание
Джейн Эйр, скромная, но гордая и независимая девушка — сирота, устраивается гувернанткой в поместье мистера Рочестера. Полюбив друг друга, Джейн и Рочестер собираются пожениться. Став невестой любимого человека и испытав небывалое счастье, Джейн сохраняет самообладание и независимость.
Она продолжает давать уроки его дочери и отвергает роскошные подарки жениха. Но в день свадьбы открывается страшная тайна, которая может навсегда разрушить мечты влюбленных и полностью изменяет все в их жизни.

Источник/Качество: DVDRip
Формат: AVI
Видео кодек: XviD
Аудио кодек: MP3
Видео: 640х480, 25 fps, ~ 1207 kbps, ~ 0.157 b/px
Аудио: Русский - 128 kbps, 2 ch, 44.1 КHz
Аудио #2: Английский - 128 kbps, 2 ch, 44.1 КHz
Общее
Полное имя : F:\Загрузки торрента\Jane Eyre [pirat.ca]\Jane Eyre_04.avi
Формат : AVI
Формат/Информация : Audio Video Interleave
Размер файла : 302 Мбайт
Продолжительность : 28 м.
Общий поток : 1477 Кбит/сек
Программа кодирования : VirtualDubModRus 1.5.10.2 (build 2542/release)
Библиотека кодирования : VirtualDubMod build 2542/release
Видео
Идентификатор : 0
Формат : MPEG-4 Visual
Профиль формата : Advanced [email protected]
Параметр BVOP формата : 2
Параметр QPel формата : Нет
Параметр GMC формата : Без точки перехода
Параметр матрицы формата : Default (H.263)
Режим смешивания : Сжатый битовый поток
Идентификатор кодека : XVID
Идентификатор кодека/Подсказка : XviD
Продолжительность : 28 м.
Битрейт : 1207 Кбит/сек
Ширина : 640 пикселей
Высота : 480 пикселей
Соотношение сторон : 4:3
Частота кадров : 25,000 кадров/сек
Цветовое пространство : YUV
Субдискретизация насыщенности : 4:2:0
Битовая глубина : 8 бит
Тип развёртки : Прогрессивная
Метод сжатия : С потерями
Бит/(Пиксели*Кадры) : 0.157
Размер потока : 246 Мбайт (82%)
Библиотека кодирования : XviD 1.2.1 (UTC 2008-12-04)
Аудио #1
Идентификатор : 1
Формат : MPEG Audio
Версия формата : Version 1
Профиль формата : Layer 3
Идентификатор кодека : 55
Идентификатор кодека/Подсказка : MP3
Продолжительность : 28 м.
Вид битрейта : Постоянный
Битрейт : 128 Кбит/сек
Каналы : 2 канала
Частота : 44,1 КГц
Метод сжатия : С потерями
Задержка видео : 26 мс.
Размер потока : 26,1 Мбайт (9%)
Выравнивание : Разделение по промежуткам
Продолжительность промежутка : 40 мс. (1,00 видеокадр)
Время предзагрузки промежутка : 500 мс.
Аудио #2
Идентификатор : 2
Формат : MPEG Audio
Версия формата : Version 1
Профиль формата : Layer 3
Режим : Joint stereo
Расширение режима : MS Stereo
Идентификатор кодека : 55
Идентификатор кодека/Подсказка : MP3
Продолжительность : 28 м.
Вид битрейта : Постоянный
Битрейт : 128 Кбит/сек
Каналы : 2 канала
Частота : 44,1 КГц
Метод сжатия : С потерями
Размер потока : 26,1 Мбайт (9%)
Выравнивание : Разделение по промежуткам
Продолжительность промежутка : 40 мс. (1,00 видеокадр)
Время предзагрузки промежутка : 500 мс.
Download / Скачать

Хотите скачать бесплатно? Зарегистрируйтесь на сайте (ссылка на регистрацию). Pirat.ca - самый быстрый торрент трекер в рунете!

Как скачивать  ·   Что такое торрент  ·   Рейтинг и ограничения



Последний раз редактировалось: Linnan (2012-04-01 16:45), всего редактировалось 1 раз

Пост 01-Апр-2012 16:51 (спустя 22 минуты)

Топик был перенесен из форума Сериалы в форум Зарубежные сериалы

gEmOkPaT
 
Показать сообщения:    
Ответить на тему

Текущее время: Сегодня 14:14

Часовой пояс: GMT + 4



Вы не можете начинать темы
Вы не можете отвечать на сообщения
Вы не можете редактировать свои сообщения
Вы не можете удалять свои сообщения
Вы не можете голосовать в опросах
Вы не можете прикреплять файлы к сообщениям
Вы не можете скачивать файлы

▼ Вниз