ML
     
  Уважаемый Гость!
Вы можете поддержать проект и зарегистрироваться у наших партнеров - онлайн-стратегия MyLands. При регистрации в игре Вы получите код, который сможете активировать после регистрации на pirat.ca и получить 1000 дублонов.

Ваш код:
a01a592a88af5f9996a6d1baec61b18a1769954d
 
     

Бегство с Юпитера / Escape from Jupiter (Сезон: 1 / Серии: 1-13 из 13) (Кагари Таджима / Kagari Tajima, Фунитака Тамура / Funitaka Tamura, Кейт Вудс / Kate Woods) [1994 г., приключения, семейный, фантастика, TVRip] MVO (РТР)

Ответить на тему
 
Автор
Сообщение

Пост 02-Апр-2012 22:25

[Q] 

Linnan

Бегство с Юпитера / Escape from Jupiter
(Сезон: 1 / Серии: 1-13 из 13)
Год выпуска: 1994
Производство: Австралия, Япония
Жанр: приключения, семейный, фантастика
Продолжительность серии: ~ 00:23:00
Мировая премьера: 10 апреля 1994
Перевод: Профессиональный (многоголосый, закадровый) [РТР]
Оригинальный аудиопоток: отсутствует
Субтитры: отсутствуют
Режиссер: Кагари Таджима / Kagari Tajima, Фунитака Тамура / Funitaka Tamura, Кейт Вудс / Kate Woods
В ролях
Стив Бисли, Артур Дигнам, Джастин Росниак, Дэниэл Тейлор, Анна Чой, Абе Форсайт, Робин МакКензи, Кен Рэдли, Линден Уилкинсон, Айвор Кэнтс
Описание
Извержение вулкана уничтожает колонию на спутнике Юпитера Ио. Майкл, Кумико, Кингстон, Анна и Герард вместе со своими родственниками вынуждены бежать с планеты, потерпевшей катастрофу. Они перестраивают заброшенную космическую станцию в космический корабль и предпринимают отчаянную попытку долететь до Земли. На борту импровизированного корабля они вместе переносят все трудности и во время этого опасного путешествия устанавливают крепкие дружеские отношения.
Дополнительно:
Качество звука и видео ниже среднего, но другого варианта сериала в хорошем качестве найти не удалось

Источник/Качество: TVRip
Формат: AVI
Видео кодек: DivX
Аудио кодек: MP3
Видео: ~1950 Кбит/сек, 592х432, 25,000 кадров/сек, 8 бит, 0.305 Бит/Пиксел
Аудио: ~84 Кбит/сек, 48,0 Кбит/сек, 2 канала, 44,1 КГц
Общее
Полное имя : F:\Загрузки торрента\Escape from Jupiter [pirat.ca]\EFJ01.avi
Формат : AVI
Формат/Информация : Audio Video Interleave
Размер файла : 347 Мбайт
Продолжительность : 23 м.
Режим общего битрейта : Переменный
Общий поток : 2047 Кбит/сек
Программа кодирования : VirtualDubMod 1.5.10.1 (build 2366/release)
Библиотека кодирования : VirtualDubMod build 2366/release
Видео
Идентификатор : 0
Формат : MPEG-4 Visual
Параметр BVOP формата : 1
Параметр QPel формата : Нет
Параметр GMC формата : 2 точки перехода
Параметр матрицы формата : Default (H.263)
Идентификатор кодека : DX50
Идентификатор кодека/Подсказка : DivX 5
Продолжительность : 23 м.
Битрейт : 1950 Кбит/сек
Ширина : 592 пикселя
Высота : 432 пикселя
Соотношение сторон : 1,370
Частота кадров : 25,000 кадров/сек
Цветовое пространство : YUV
Субдискретизация насыщенности : 4:2:0
Битовая глубина : 8 бит
Тип развёртки : Прогрессивная
Метод сжатия : С потерями
Бит/(Пиксели*Кадры) : 0.305
Размер потока : 331 Мбайт (95%)
Библиотека кодирования : DivX 1338m
Аудио
Идентификатор : 1
Формат : MPEG Audio
Версия формата : Version 1
Профиль формата : Layer 3
Режим : Joint stereo
Расширение режима : MS Stereo
Идентификатор кодека : 55
Идентификатор кодека/Подсказка : MP3
Продолжительность : 23 м.
Вид битрейта : Переменный
Битрейт : 84,1 Кбит/сек
Минимальный битрейт : 48,0 Кбит/сек
Каналы : 2 канала
Частота : 44,1 КГц
Метод сжатия : С потерями
Размер потока : 14,2 Мбайт (4%)
Выравнивание : Соединение по промежуткам
Продолжительность промежутка : 26 мс. (0,65 видеокадр)
Время предзагрузки промежутка : 531 мс.
Библиотека кодирования : LAME3.96r
Настройки программы : -m j -V 5 -q 2 -lowpass 17 --vbr-old -b 48
Общее
Полное имя : F:\Загрузки торрента\Escape from Jupiter [pirat.ca]\EFJ02.avi
Формат : AVI
Формат/Информация : Audio Video Interleave
Размер файла : 345 Мбайт
Продолжительность : 23 м.
Режим общего битрейта : Переменный
Общий поток : 2042 Кбит/сек
Программа кодирования : VirtualDubMod 1.5.10.1 (build 2366/release)
Библиотека кодирования : VirtualDubMod build 2366/release
Видео
Идентификатор : 0
Формат : MPEG-4 Visual
Параметр BVOP формата : 1
Параметр QPel формата : Нет
Параметр GMC формата : 2 точки перехода
Параметр матрицы формата : Default (H.263)
Идентификатор кодека : DX50
Идентификатор кодека/Подсказка : DivX 5
Продолжительность : 23 м.
Битрейт : 1948 Кбит/сек
Ширина : 592 пикселя
Высота : 432 пикселя
Соотношение сторон : 1,370
Частота кадров : 25,000 кадров/сек
Цветовое пространство : YUV
Субдискретизация насыщенности : 4:2:0
Битовая глубина : 8 бит
Тип развёртки : Прогрессивная
Метод сжатия : С потерями
Бит/(Пиксели*Кадры) : 0.305
Размер потока : 329 Мбайт (95%)
Библиотека кодирования : DivX 1338m
Аудио
Идентификатор : 1
Формат : MPEG Audio
Версия формата : Version 1
Профиль формата : Layer 3
Режим : Joint stereo
Расширение режима : MS Stereo
Идентификатор кодека : 55
Идентификатор кодека/Подсказка : MP3
Продолжительность : 23 м.
Вид битрейта : Переменный
Битрейт : 82,5 Кбит/сек
Минимальный битрейт : 48,0 Кбит/сек
Каналы : 2 канала
Частота : 44,1 КГц
Метод сжатия : С потерями
Размер потока : 13,9 Мбайт (4%)
Выравнивание : Соединение по промежуткам
Продолжительность промежутка : 26 мс. (0,65 видеокадр)
Время предзагрузки промежутка : 566 мс.
Библиотека кодирования : LAME3.96r
Настройки программы : -m j -V 5 -q 2 -lowpass 17 --vbr-old -b 48
Общее
Полное имя : F:\Загрузки торрента\Escape from Jupiter [pirat.ca]\EFJ03.avi
Формат : AVI
Формат/Информация : Audio Video Interleave
Размер файла : 338 Мбайт
Продолжительность : 23 м.
Режим общего битрейта : Переменный
Общий поток : 2046 Кбит/сек
Программа кодирования : VirtualDubMod 1.5.10.1 (build 2366/release)
Библиотека кодирования : VirtualDubMod build 2366/release
Видео
Идентификатор : 0
Формат : MPEG-4 Visual
Параметр BVOP формата : 1
Параметр QPel формата : Нет
Параметр GMC формата : 2 точки перехода
Параметр матрицы формата : Default (H.263)
Идентификатор кодека : DX50
Идентификатор кодека/Подсказка : DivX 5
Продолжительность : 23 м.
Битрейт : 1950 Кбит/сек
Ширина : 592 пикселя
Высота : 432 пикселя
Соотношение сторон : 1,370
Частота кадров : 25,000 кадров/сек
Цветовое пространство : YUV
Субдискретизация насыщенности : 4:2:0
Битовая глубина : 8 бит
Тип развёртки : Прогрессивная
Метод сжатия : С потерями
Бит/(Пиксели*Кадры) : 0.305
Размер потока : 322 Мбайт (95%)
Библиотека кодирования : DivX 1338m
Аудио
Идентификатор : 1
Формат : MPEG Audio
Версия формата : Version 1
Профиль формата : Layer 3
Режим : Joint stereo
Расширение режима : MS Stereo
Идентификатор кодека : 55
Идентификатор кодека/Подсказка : MP3
Продолжительность : 23 м.
Вид битрейта : Переменный
Битрейт : 83,6 Кбит/сек
Минимальный битрейт : 48,0 Кбит/сек
Каналы : 2 канала
Частота : 44,1 КГц
Метод сжатия : С потерями
Размер потока : 13,8 Мбайт (4%)
Выравнивание : Соединение по промежуткам
Продолжительность промежутка : 26 мс. (0,65 видеокадр)
Время предзагрузки промежутка : 609 мс.
Библиотека кодирования : LAME3.96r
Настройки программы : -m j -V 5 -q 2 -lowpass 17 --vbr-old -b 48
Общее
Полное имя : F:\Загрузки торрента\Escape from Jupiter [pirat.ca]\EFJ04.avi
Формат : AVI
Формат/Информация : Audio Video Interleave
Размер файла : 334 Мбайт
Продолжительность : 22 м.
Режим общего битрейта : Переменный
Общий поток : 2045 Кбит/сек
Программа кодирования : VirtualDubMod 1.5.10.1 (build 2366/release)
Библиотека кодирования : VirtualDubMod build 2366/release
Видео
Идентификатор : 0
Формат : MPEG-4 Visual
Параметр BVOP формата : 2
Параметр QPel формата : Нет
Параметр GMC формата : 2 точки перехода
Параметр матрицы формата : Default (H.263)
Идентификатор кодека : DX50
Идентификатор кодека/Подсказка : DivX 5
Продолжительность : 22 м.
Битрейт : 1949 Кбит/сек
Ширина : 592 пикселя
Высота : 432 пикселя
Соотношение сторон : 1,370
Частота кадров : 25,000 кадров/сек
Цветовое пространство : YUV
Субдискретизация насыщенности : 4:2:0
Битовая глубина : 8 бит
Тип развёртки : Прогрессивная
Метод сжатия : С потерями
Бит/(Пиксели*Кадры) : 0.305
Размер потока : 318 Мбайт (95%)
Библиотека кодирования : DivX 1338m
Аудио
Идентификатор : 1
Формат : MPEG Audio
Версия формата : Version 1
Профиль формата : Layer 3
Режим : Joint stereo
Расширение режима : MS Stereo
Идентификатор кодека : 55
Идентификатор кодека/Подсказка : MP3
Продолжительность : 22 м.
Вид битрейта : Переменный
Битрейт : 83,5 Кбит/сек
Минимальный битрейт : 48,0 Кбит/сек
Каналы : 2 канала
Частота : 44,1 КГц
Метод сжатия : С потерями
Размер потока : 13,6 Мбайт (4%)
Выравнивание : Соединение по промежуткам
Продолжительность промежутка : 26 мс. (0,65 видеокадр)
Время предзагрузки промежутка : 599 мс.
Библиотека кодирования : LAME3.96r
Настройки программы : -m j -V 5 -q 2 -lowpass 17 --vbr-old -b 48
Общее
Полное имя : F:\Загрузки торрента\Escape from Jupiter [pirat.ca]\EFJ05.avi
Формат : AVI
Формат/Информация : Audio Video Interleave
Размер файла : 334 Мбайт
Продолжительность : 22 м.
Режим общего битрейта : Переменный
Общий поток : 2052 Кбит/сек
Программа кодирования : VirtualDubMod 1.5.10.1 (build 2366/release)
Библиотека кодирования : VirtualDubMod build 2366/release
Видео
Идентификатор : 0
Формат : MPEG-4 Visual
Параметр BVOP формата : 2
Параметр QPel формата : Нет
Параметр GMC формата : 2 точки перехода
Параметр матрицы формата : Default (H.263)
Идентификатор кодека : DX50
Идентификатор кодека/Подсказка : DivX 5
Продолжительность : 22 м.
Битрейт : 1950 Кбит/сек
Ширина : 592 пикселя
Высота : 432 пикселя
Соотношение сторон : 1,370
Частота кадров : 25,000 кадров/сек
Цветовое пространство : YUV
Субдискретизация насыщенности : 4:2:0
Битовая глубина : 8 бит
Тип развёртки : Прогрессивная
Метод сжатия : С потерями
Бит/(Пиксели*Кадры) : 0.305
Размер потока : 317 Мбайт (95%)
Библиотека кодирования : DivX 1338m
Аудио
Идентификатор : 1
Формат : MPEG Audio
Версия формата : Version 1
Профиль формата : Layer 3
Режим : Joint stereo
Расширение режима : MS Stereo
Идентификатор кодека : 55
Идентификатор кодека/Подсказка : MP3
Продолжительность : 22 м.
Вид битрейта : Переменный
Битрейт : 89,1 Кбит/сек
Минимальный битрейт : 48,0 Кбит/сек
Каналы : 2 канала
Частота : 44,1 КГц
Метод сжатия : С потерями
Размер потока : 14,5 Мбайт (4%)
Выравнивание : Соединение по промежуткам
Продолжительность промежутка : 26 мс. (0,65 видеокадр)
Время предзагрузки промежутка : 482 мс.
Библиотека кодирования : LAME3.96r
Настройки программы : -m j -V 5 -q 2 -lowpass 17 --vbr-old -b 48
Общее
Полное имя : F:\Загрузки торрента\Escape from Jupiter [pirat.ca]\EFJ06.avi
Формат : AVI
Формат/Информация : Audio Video Interleave
Размер файла : 338 Мбайт
Продолжительность : 23 м.
Режим общего битрейта : Переменный
Общий поток : 2049 Кбит/сек
Программа кодирования : VirtualDubMod 1.5.10.1 (build 2366/release)
Библиотека кодирования : VirtualDubMod build 2366/release
Видео
Идентификатор : 0
Формат : MPEG-4 Visual
Параметр BVOP формата : 2
Параметр QPel формата : Нет
Параметр GMC формата : 2 точки перехода
Параметр матрицы формата : Default (H.263)
Идентификатор кодека : DX50
Идентификатор кодека/Подсказка : DivX 5
Продолжительность : 23 м.
Битрейт : 1950 Кбит/сек
Ширина : 592 пикселя
Высота : 432 пикселя
Соотношение сторон : 1,370
Частота кадров : 25,000 кадров/сек
Цветовое пространство : YUV
Субдискретизация насыщенности : 4:2:0
Битовая глубина : 8 бит
Тип развёртки : Прогрессивная
Метод сжатия : С потерями
Бит/(Пиксели*Кадры) : 0.305
Размер потока : 321 Мбайт (95%)
Библиотека кодирования : DivX 1338m
Аудио
Идентификатор : 1
Формат : MPEG Audio
Версия формата : Version 1
Профиль формата : Layer 3
Режим : Joint stereo
Расширение режима : MS Stereo
Идентификатор кодека : 55
Идентификатор кодека/Подсказка : MP3
Продолжительность : 23 м.
Вид битрейта : Переменный
Битрейт : 86,7 Кбит/сек
Минимальный битрейт : 48,0 Кбит/сек
Каналы : 2 канала
Частота : 44,1 КГц
Метод сжатия : С потерями
Размер потока : 14,3 Мбайт (4%)
Выравнивание : Соединение по промежуткам
Продолжительность промежутка : 26 мс. (0,65 видеокадр)
Время предзагрузки промежутка : 524 мс.
Библиотека кодирования : LAME3.96r
Настройки программы : -m j -V 5 -q 2 -lowpass 17 --vbr-old -b 48
Общее
Полное имя : F:\Загрузки торрента\Escape from Jupiter [pirat.ca]\EFJ07.avi
Формат : AVI
Формат/Информация : Audio Video Interleave
Размер файла : 335 Мбайт
Продолжительность : 22 м.
Режим общего битрейта : Переменный
Общий поток : 2048 Кбит/сек
Программа кодирования : VirtualDubMod 1.5.10.1 (build 2366/release)
Библиотека кодирования : VirtualDubMod build 2366/release
Видео
Идентификатор : 0
Формат : MPEG-4 Visual
Параметр BVOP формата : 2
Параметр QPel формата : Нет
Параметр GMC формата : 2 точки перехода
Параметр матрицы формата : Default (H.263)
Идентификатор кодека : DX50
Идентификатор кодека/Подсказка : DivX 5
Продолжительность : 22 м.
Битрейт : 1950 Кбит/сек
Ширина : 592 пикселя
Высота : 432 пикселя
Соотношение сторон : 1,370
Частота кадров : 25,000 кадров/сек
Цветовое пространство : YUV
Субдискретизация насыщенности : 4:2:0
Битовая глубина : 8 бит
Тип развёртки : Прогрессивная
Метод сжатия : С потерями
Бит/(Пиксели*Кадры) : 0.305
Размер потока : 319 Мбайт (95%)
Библиотека кодирования : DivX 1338m
Аудио
Идентификатор : 1
Формат : MPEG Audio
Версия формата : Version 1
Профиль формата : Layer 3
Режим : Joint stereo
Расширение режима : MS Stereo
Идентификатор кодека : 55
Идентификатор кодека/Подсказка : MP3
Продолжительность : 22 м.
Вид битрейта : Переменный
Битрейт : 85,1 Кбит/сек
Минимальный битрейт : 48,0 Кбит/сек
Каналы : 2 канала
Частота : 44,1 КГц
Метод сжатия : С потерями
Размер потока : 13,9 Мбайт (4%)
Выравнивание : Соединение по промежуткам
Продолжительность промежутка : 26 мс. (0,65 видеокадр)
Время предзагрузки промежутка : 573 мс.
Библиотека кодирования : LAME3.96r
Настройки программы : -m j -V 5 -q 2 -lowpass 17 --vbr-old -b 48
Общее
Полное имя : F:\Загрузки торрента\Escape from Jupiter [pirat.ca]\EFJ08.avi
Формат : AVI
Формат/Информация : Audio Video Interleave
Размер файла : 344 Мбайт
Продолжительность : 23 м.
Режим общего битрейта : Переменный
Общий поток : 2049 Кбит/сек
Программа кодирования : VirtualDubMod 1.5.10.1 (build 2366/release)
Библиотека кодирования : VirtualDubMod build 2366/release
Видео
Идентификатор : 0
Формат : MPEG-4 Visual
Параметр BVOP формата : 1
Параметр QPel формата : Нет
Параметр GMC формата : 2 точки перехода
Параметр матрицы формата : Default (H.263)
Идентификатор кодека : DX50
Идентификатор кодека/Подсказка : DivX 5
Продолжительность : 23 м.
Битрейт : 1950 Кбит/сек
Ширина : 592 пикселя
Высота : 432 пикселя
Соотношение сторон : 1,370
Частота кадров : 24,981 кадров/сек
Цветовое пространство : YUV
Субдискретизация насыщенности : 4:2:0
Битовая глубина : 8 бит
Тип развёртки : Прогрессивная
Метод сжатия : С потерями
Бит/(Пиксели*Кадры) : 0.305
Размер потока : 327 Мбайт (95%)
Библиотека кодирования : DivX 1338m
Аудио
Идентификатор : 1
Формат : MPEG Audio
Версия формата : Version 1
Профиль формата : Layer 3
Режим : Joint stereo
Идентификатор кодека : 55
Идентификатор кодека/Подсказка : MP3
Продолжительность : 23 м.
Вид битрейта : Переменный
Битрейт : 85,9 Кбит/сек
Минимальный битрейт : 48,0 Кбит/сек
Каналы : 2 канала
Частота : 44,1 КГц
Метод сжатия : С потерями
Размер потока : 14,4 Мбайт (4%)
Выравнивание : Соединение по промежуткам
Продолжительность промежутка : 26 мс. (0,65 видеокадр)
Время предзагрузки промежутка : 655 мс.
Библиотека кодирования : LAME3.96r
Настройки программы : -m j -V 5 -q 2 -lowpass 17 --vbr-old -b 48
Общее
Полное имя : F:\Загрузки торрента\Escape from Jupiter [pirat.ca]\EFJ09.avi
Формат : AVI
Формат/Информация : Audio Video Interleave
Размер файла : 333 Мбайт
Продолжительность : 22 м.
Режим общего битрейта : Переменный
Общий поток : 2045 Кбит/сек
Программа кодирования : VirtualDubMod 1.5.10.1 (build 2366/release)
Библиотека кодирования : VirtualDubMod build 2366/release
Видео
Идентификатор : 0
Формат : MPEG-4 Visual
Параметр BVOP формата : 2
Параметр QPel формата : Нет
Параметр GMC формата : 2 точки перехода
Параметр матрицы формата : Default (H.263)
Идентификатор кодека : DX50
Идентификатор кодека/Подсказка : DivX 5
Продолжительность : 22 м.
Битрейт : 1951 Кбит/сек
Ширина : 592 пикселя
Высота : 432 пикселя
Соотношение сторон : 1,370
Частота кадров : 25,000 кадров/сек
Цветовое пространство : YUV
Субдискретизация насыщенности : 4:2:0
Битовая глубина : 8 бит
Тип развёртки : Прогрессивная
Метод сжатия : С потерями
Бит/(Пиксели*Кадры) : 0.305
Размер потока : 318 Мбайт (95%)
Библиотека кодирования : DivX 1338m
Аудио
Идентификатор : 1
Формат : MPEG Audio
Версия формата : Version 1
Профиль формата : Layer 3
Режим : Joint stereo
Расширение режима : MS Stereo
Идентификатор кодека : 55
Идентификатор кодека/Подсказка : MP3
Продолжительность : 22 м.
Вид битрейта : Переменный
Битрейт : 82,4 Кбит/сек
Минимальный битрейт : 48,0 Кбит/сек
Каналы : 2 канала
Частота : 44,1 КГц
Метод сжатия : С потерями
Размер потока : 13,4 Мбайт (4%)
Выравнивание : Соединение по промежуткам
Продолжительность промежутка : 26 мс. (0,65 видеокадр)
Время предзагрузки промежутка : 513 мс.
Библиотека кодирования : LAME3.96r
Настройки программы : -m j -V 5 -q 2 -lowpass 17 --vbr-old -b 48
Общее
Полное имя : F:\Загрузки торрента\Escape from Jupiter [pirat.ca]\EFJ10.avi
Формат : AVI
Формат/Информация : Audio Video Interleave
Размер файла : 334 Мбайт
Продолжительность : 22 м.
Режим общего битрейта : Переменный
Общий поток : 2046 Кбит/сек
Программа кодирования : VirtualDubMod 1.5.10.1 (build 2366/release)
Библиотека кодирования : VirtualDubMod build 2366/release
Видео
Идентификатор : 0
Формат : MPEG-4 Visual
Параметр BVOP формата : 1
Параметр QPel формата : Нет
Параметр GMC формата : 2 точки перехода
Параметр матрицы формата : Default (H.263)
Идентификатор кодека : DX50
Идентификатор кодека/Подсказка : DivX 5
Продолжительность : 22 м.
Битрейт : 1949 Кбит/сек
Ширина : 592 пикселя
Высота : 432 пикселя
Соотношение сторон : 1,370
Частота кадров : 25,000 кадров/сек
Цветовое пространство : YUV
Субдискретизация насыщенности : 4:2:0
Битовая глубина : 8 бит
Тип развёртки : Прогрессивная
Метод сжатия : С потерями
Бит/(Пиксели*Кадры) : 0.305
Размер потока : 318 Мбайт (95%)
Библиотека кодирования : DivX 1338m
Аудио
Идентификатор : 1
Формат : MPEG Audio
Версия формата : Version 1
Профиль формата : Layer 3
Режим : Joint stereo
Расширение режима : MS Stereo
Идентификатор кодека : 55
Идентификатор кодека/Подсказка : MP3
Продолжительность : 22 м.
Вид битрейта : Переменный
Битрейт : 84,8 Кбит/сек
Минимальный битрейт : 48,0 Кбит/сек
Каналы : 2 канала
Частота : 44,1 КГц
Метод сжатия : С потерями
Размер потока : 13,8 Мбайт (4%)
Выравнивание : Соединение по промежуткам
Продолжительность промежутка : 26 мс. (0,65 видеокадр)
Время предзагрузки промежутка : 625 мс.
Библиотека кодирования : LAME3.96r
Настройки программы : -m j -V 5 -q 2 -lowpass 17 --vbr-old -b 48
Общее
Полное имя : F:\Загрузки торрента\Escape from Jupiter [pirat.ca]\EFJ11.avi
Формат : AVI
Формат/Информация : Audio Video Interleave
Размер файла : 335 Мбайт
Продолжительность : 22 м.
Режим общего битрейта : Переменный
Общий поток : 2046 Кбит/сек
Программа кодирования : VirtualDubMod 1.5.10.1 (build 2366/release)
Библиотека кодирования : VirtualDubMod build 2366/release
Видео
Идентификатор : 0
Формат : MPEG-4 Visual
Параметр BVOP формата : 2
Параметр QPel формата : Нет
Параметр GMC формата : 2 точки перехода
Параметр матрицы формата : Default (H.263)
Идентификатор кодека : DX50
Идентификатор кодека/Подсказка : DivX 5
Продолжительность : 22 м.
Битрейт : 1950 Кбит/сек
Ширина : 592 пикселя
Высота : 432 пикселя
Соотношение сторон : 1,370
Частота кадров : 25,000 кадров/сек
Цветовое пространство : YUV
Субдискретизация насыщенности : 4:2:0
Битовая глубина : 8 бит
Тип развёртки : Прогрессивная
Метод сжатия : С потерями
Бит/(Пиксели*Кадры) : 0.305
Размер потока : 319 Мбайт (95%)
Библиотека кодирования : DivX 1338m
Аудио
Идентификатор : 1
Формат : MPEG Audio
Версия формата : Version 1
Профиль формата : Layer 3
Режим : Joint stereo
Расширение режима : MS Stereo
Идентификатор кодека : 55
Идентификатор кодека/Подсказка : MP3
Продолжительность : 22 м.
Вид битрейта : Переменный
Битрейт : 83,8 Кбит/сек
Минимальный битрейт : 48,0 Кбит/сек
Каналы : 2 канала
Частота : 44,1 КГц
Метод сжатия : С потерями
Размер потока : 13,7 Мбайт (4%)
Выравнивание : Соединение по промежуткам
Продолжительность промежутка : 26 мс. (0,65 видеокадр)
Время предзагрузки промежутка : 587 мс.
Библиотека кодирования : LAME3.96r
Настройки программы : -m j -V 5 -q 2 -lowpass 17 --vbr-old -b 48
Общее
Полное имя : F:\Загрузки торрента\Escape from Jupiter [pirat.ca]\EFJ12.avi
Формат : AVI
Формат/Информация : Audio Video Interleave
Размер файла : 336 Мбайт
Продолжительность : 22 м.
Режим общего битрейта : Переменный
Общий поток : 2055 Кбит/сек
Программа кодирования : VirtualDubMod 1.5.10.1 (build 2366/release)
Библиотека кодирования : VirtualDubMod build 2366/release
Видео
Идентификатор : 0
Формат : MPEG-4 Visual
Параметр BVOP формата : 2
Параметр QPel формата : Нет
Параметр GMC формата : 2 точки перехода
Параметр матрицы формата : Default (H.263)
Идентификатор кодека : DX50
Идентификатор кодека/Подсказка : DivX 5
Продолжительность : 22 м.
Битрейт : 1949 Кбит/сек
Ширина : 592 пикселя
Высота : 432 пикселя
Соотношение сторон : 1,370
Частота кадров : 25,000 кадров/сек
Цветовое пространство : YUV
Субдискретизация насыщенности : 4:2:0
Битовая глубина : 8 бит
Тип развёртки : Прогрессивная
Метод сжатия : С потерями
Бит/(Пиксели*Кадры) : 0.305
Размер потока : 319 Мбайт (95%)
Библиотека кодирования : DivX 1338m
Аудио
Идентификатор : 1
Формат : MPEG Audio
Версия формата : Version 1
Профиль формата : Layer 3
Режим : Joint stereo
Расширение режима : MS Stereo
Идентификатор кодека : 55
Идентификатор кодека/Подсказка : MP3
Продолжительность : 22 м.
Вид битрейта : Переменный
Битрейт : 92,8 Кбит/сек
Минимальный битрейт : 48,0 Кбит/сек
Каналы : 2 канала
Частота : 44,1 КГц
Метод сжатия : С потерями
Размер потока : 15,2 Мбайт (5%)
Выравнивание : Соединение по промежуткам
Продолжительность промежутка : 26 мс. (0,65 видеокадр)
Время предзагрузки промежутка : 589 мс.
Библиотека кодирования : LAME3.96r
Настройки программы : -m j -V 5 -q 2 -lowpass 17 --vbr-old -b 48
Общее
Полное имя : F:\Загрузки торрента\Escape from Jupiter [pirat.ca]\EFJ13.avi
Формат : AVI
Формат/Информация : Audio Video Interleave
Размер файла : 359 Мбайт
Продолжительность : 24 м.
Режим общего битрейта : Переменный
Общий поток : 2056 Кбит/сек
Программа кодирования : VirtualDubMod 1.5.10.1 (build 2366/release)
Библиотека кодирования : VirtualDubMod build 2366/release
Видео
Идентификатор : 0
Формат : MPEG-4 Visual
Параметр BVOP формата : 2
Параметр QPel формата : Нет
Параметр GMC формата : 2 точки перехода
Параметр матрицы формата : Default (H.263)
Идентификатор кодека : DX50
Идентификатор кодека/Подсказка : DivX 5
Продолжительность : 24 м.
Битрейт : 1951 Кбит/сек
Ширина : 592 пикселя
Высота : 432 пикселя
Соотношение сторон : 1,370
Частота кадров : 25,000 кадров/сек
Цветовое пространство : YUV
Субдискретизация насыщенности : 4:2:0
Битовая глубина : 8 бит
Тип развёртки : Прогрессивная
Метод сжатия : С потерями
Бит/(Пиксели*Кадры) : 0.305
Размер потока : 341 Мбайт (95%)
Библиотека кодирования : DivX 1338m
Аудио
Идентификатор : 1
Формат : MPEG Audio
Версия формата : Version 1
Профиль формата : Layer 3
Режим : Joint stereo
Расширение режима : MS Stereo
Идентификатор кодека : 55
Идентификатор кодека/Подсказка : MP3
Продолжительность : 24 м.
Вид битрейта : Переменный
Битрейт : 92,2 Кбит/сек
Минимальный битрейт : 48,0 Кбит/сек
Каналы : 2 канала
Частота : 44,1 КГц
Метод сжатия : С потерями
Размер потока : 16,1 Мбайт (4%)
Выравнивание : Соединение по промежуткам
Продолжительность промежутка : 26 мс. (0,65 видеокадр)
Время предзагрузки промежутка : 556 мс.
Библиотека кодирования : LAME3.96r
Настройки программы : -m j -V 5 -q 2 -lowpass 17 --vbr-old -b 48
Download / Скачать

Хотите скачать бесплатно? Зарегистрируйтесь на сайте (ссылка на регистрацию). Pirat.ca - самый быстрый торрент трекер в рунете!

Как скачивать  ·   Что такое торрент  ·   Рейтинг и ограничения

Пост 03-Апр-2012 10:33 (спустя 12 часов)

Топик был перенесен из форума Сериалы в форум Зарубежные сериалы

gEmOkPaT
 
Показать сообщения:    
Ответить на тему

Текущее время: Сегодня 09:47

Часовой пояс: GMT + 4



Вы не можете начинать темы
Вы не можете отвечать на сообщения
Вы не можете редактировать свои сообщения
Вы не можете удалять свои сообщения
Вы не можете голосовать в опросах
Вы не можете прикреплять файлы к сообщениям
Вы не можете скачивать файлы

▼ Вниз