ML
     
  Уважаемый Гость!
Вы можете поддержать проект и зарегистрироваться у наших партнеров - онлайн-стратегия MyLands. При регистрации в игре Вы получите код, который сможете активировать после регистрации на pirat.ca и получить 1000 дублонов.

Ваш код:
500cb7bd8d2cec9a8aba647a87ce41c4b76f06bd
 
     

Игра престолов / Game of Thrones / Сезон: 2 / Серии: 1-10 (10) (Алан Тейлор, Брайан Кирк, Даниэль Минахан / Alan Taylor, Brian Kirk, Daniel Minahan) [2012, Фэнтези, Драма, HDTVRip 1080p] MVO (LostFilm)

Страницы :  1, 2, 3, 4  След.

Ответить на тему
 
Автор
Сообщение

Пост 03-Апр-2012 09:55

[Q] 

genkasper

-Игра престолов / Game of Thrones
Сезон 2
- Год выпуска: 2012
Страна: США
Жанр: фэнтези, драма, приключения
Продолжительность: ~ 54 минуты серия
Перевод: Профессиональный многолосый (LostFilm)
Субтитры: Русские (7kingdoms), Английские
Режиссёр: Алан Тейлор, Брайан Кирк, Даниэль Минахан
В ролях: Питер Динклэйдж, Марк Эдди, Николай Костер-Валдау, Мишель Фэйрли, Лена Хиди, Эмилия Кларк, Иэн Глен, Эйдан Гиллен и др.
Описание: В Вестеросе наступила осень — предвестник долгой зимы, когда Белые ходоки пробудятся ото сна. Но Стена и её защитники позабыты: три короля претендуют на Железный трон и два верховных лорда провозгласили себя королями над своими землями. Никто из них не желает заключить союзы, и каждый считает свое право на трон священным. И воцарился над миром кровавый хаос войны. И началась великая битва, в которой наградою победителю станет Железный Трон Семи Королевств.
Страшные настали времена — времена отваги и отмщения, интриги и магии. Ныне дева повстречает безумца, а брат занесет меч на брата. Ныне убитые восстанут — и пойдут тропою Тьмы. Ныне вонзится холодная сталь в холодные сердца.
Ныне грядет предначертанная пророчеством БИТВА КОРОЛЕЙ…
rip by_genkasper- -Качество: HDTVRip 1080p
Формат: MKV
Видео кодек: H.264
Аудио кодек: AC3
Видео: 1920x1072, 23.976 fps, ~8000 kbps, ~0.162 bit/pixel
Аудио: AC3, 6 ch, 384 Kbps, 48.0 KHz LostFilm
Аудио 2: AC3, 6 ch, 384 Kbps, 48.0 KHz английский
Субтитры: русские, английские
General
Complete name : Game.of.Thrones.S02.HDTVRip.1080p.LostFilm.5.1.by_genkasper\Game.of.Thrones.S02E01.1080p.DD5.1.LostFilm.by_genkasper.mkv
Format : Matroska
Format version : Version 2
File size : 3.38 GiB
Duration : 55mn 9s
Overall bit rate : 8 774 Kbps
Movie name : Rip by genkasper
Encoded date : UTC 2012-05-27 21:34:00
Writing application : mkvmerge v5.3.0 ('I could have danced') built on Feb 9 2012 10:38:07
Writing library : libebml v1.2.3 + libmatroska v1.3.0
Video
ID : 1
Format : AVC
Format/Info : Advanced Video Codec
Format profile : [email protected]
Format settings, CABAC : Yes
Format settings, ReFrames : 4 frames
Codec ID : V_MPEG4/ISO/AVC
Duration : 55mn 9s
Bit rate : 8 000 Kbps
Width : 1 920 pixels
Height : 1 072 pixels
Display aspect ratio : 16:9
Frame rate : 23.976 fps
Color space : YUV
Chroma subsampling : 4:2:0
Bit depth : 8 bits
Scan type : Progressive
Bits/(Pixel*Frame) : 0.162
Stream size : 3.02 GiB (89%)
Title : by_genkasper
Writing library : x264 core 115 r1936 7a9e08d
Encoding settings : cabac=1 / ref=4 / deblock=1:-1:-1 / analyse=0x3:0x133 / me=umh / subme=10 / psy=1 / psy_rd=1.00:0.10 / mixed_ref=1 / me_range=24 / chroma_me=1 / trellis=2 / 8x8dct=1 / cqm=0 / deadzone=21,11 / fast_pskip=0 / chroma_qp_offset=-3 / threads=9 / sliced_threads=0 / nr=0 / decimate=1 / interlaced=0 / bluray_compat=0 / constrained_intra=0 / bframes=9 / b_pyramid=2 / b_adapt=2 / b_bias=0 / direct=3 / weightb=1 / open_gop=0 / weightp=2 / keyint=250 / keyint_min=23 / scenecut=40 / intra_refresh=0 / rc_lookahead=50 / rc=2pass / mbtree=1 / bitrate=8000 / ratetol=1.0 / qcomp=0.70 / qpmin=0 / qpmax=69 / qpstep=4 / cplxblur=20.0 / qblur=0.5 / ip_ratio=1.40 / aq=1:1.00
Language : English
Default : Yes
Forced : No
Audio #1
ID : 2
Format : AC-3
Format/Info : Audio Coding 3
Mode extension : CM (complete main)
Format settings, Endianness : Big
Codec ID : A_AC3
Duration : 55mn 9s
Bit rate mode : Constant
Bit rate : 384 Kbps
Channel(s) : 6 channels
Channel positions : Front: L C R, Side: L R, LFE
Sampling rate : 48.0 KHz
Bit depth : 16 bits
Compression mode : Lossy
Stream size : 152 MiB (4%)
Title : LostFilm
Language : Russian
Default : Yes
Forced : No
Audio #2
ID : 3
Format : AC-3
Format/Info : Audio Coding 3
Mode extension : CM (complete main)
Format settings, Endianness : Big
Codec ID : A_AC3
Duration : 55mn 9s
Bit rate mode : Constant
Bit rate : 384 Kbps
Channel(s) : 6 channels
Channel positions : Front: L C R, Side: L R, LFE
Sampling rate : 48.0 KHz
Bit depth : 16 bits
Compression mode : Lossy
Stream size : 152 MiB (4%)
Title : original
Language : English
Default : No
Forced : No
Text #1
ID : 4
Format : UTF-8
Codec ID : S_TEXT/UTF8
Codec ID/Info : UTF-8 Plain Text
Title : Rus, srt
Language : Russian
Default : No
Forced : No
Text #2
ID : 5
Format : UTF-8
Codec ID : S_TEXT/UTF8
Codec ID/Info : UTF-8 Plain Text
Title : Eng, srt
Language : English
Default : No
Forced : No
source -> genkasper



-Ещё скриншоты

01.«Север помнит» - «The North Remembers» 1 апреля 2012 г
02.«Ночные земли» - «The Night Lands» 8 апреля 2012 г
03.«Что мертво, умереть не может» - «What Is Dead May Never Die» 15 апреля 2012 г.
04.«Костяной Сад» - «Garden of Bones» 22 апреля 2012 г.
05.«Призрак Харренхола» - «The Ghost of Harrenhal» 29 апреля 2012 г.
06.«Старые Боги и Новые» - «The Old Gods and the New» 6 мая 2012 г.
07.«Человек без Чести» - «A Man Without Honor» 13 мая 2012 г.
08.«Принц Винтерфелла» - «The Prince of Winterfell» 20 мая 2012 г.
09.«Черноводная» - «Blackwater» 27 мая 2012 г.
10.«Валар Моргулис» - «Valar Morghulis» 3 июня 2012 г.
-
-07.06.2012 раздача полностью обновлена, перевод заменён на качество AC3, 6 ch, 384 Kbps, 48.0 KHz
За звук большое спасибо Nez и Pro_Rock_
Download / Скачать

Хотите скачать бесплатно? Зарегистрируйтесь на сайте (ссылка на регистрацию). Pirat.ca - самый быстрый торрент трекер в рунете!

Как скачивать  ·   Что такое торрент  ·   Рейтинг и ограничения



Последний раз редактировалось: genkasper (2012-06-07 19:42), всего редактировалось 19 раз(а)

gEmOkPaT

1423

Пост 03-Апр-2012 09:56 (спустя 1 минута)

[Q] 

раздачу не трогать! она находится под опекой ООН!.

_________________
[Профиль]  [ЛС] 

genkasper ®

4243

Пост 04-Апр-2012 22:37 (спустя 1 день 12 часов)

[Q] 

можно уже торогать)

_________________

обо всех исправлениях в темах пишите в ЛС
[Профиль]  [ЛС] 

Пост 04-Апр-2012 22:47 (спустя 9 минут)

Топик был перенесен из форума Сериалы в форум Сериалы в эфире

gEmOkPaT
 

gEmOkPaT

1423

Пост 04-Апр-2012 22:49 (спустя 11 минут)

[Q] 

Ну ладно! трогайте чтоль))

_________________
[Профиль]  [ЛС] 

ZlobiN

Корсар

Пост 05-Апр-2012 07:54 (спустя 9 часов)

[Q] 

[Профиль]  [ЛС] 

SIDoff

Лоцман

Пост 05-Апр-2012 13:47 (спустя 5 часов)

[Q] 

[Профиль]  [ЛС] 

Serg 1971

Лоцман

Пост 05-Апр-2012 14:43 (спустя 55 минут)

[Q] 



bs bs bs
[Профиль]  [ЛС] 

Svetlana_alekseeva

Лоцман

Пост 05-Апр-2012 16:01 (спустя 1 час 18 минут)

[Q] 

Ура-ура!
[Профиль]  [ЛС] 

Rommm

Лоцман

Пост 05-Апр-2012 17:20 (спустя 1 час 18 минут)

[Q] 

Шикарно вышел второй сезон, очень ждал
[Профиль]  [ЛС] 

Ryddik

Корсар

5

Пост 05-Апр-2012 19:56 (спустя 2 часа 35 минут)

[Q] 

[Профиль]  [ЛС] 

Hugin

Морской Волк

163

Пост 05-Апр-2012 20:07 (спустя 11 минут)

[Q] 

[Профиль]  [ЛС] 

mjurs

Корсар

Пост 05-Апр-2012 20:17 (спустя 10 минут)

[Q] 

[Профиль]  [ЛС] 

Vladislav

Шкипер

Пост 05-Апр-2012 21:03 (спустя 46 минут)

[Q] 

Спасибо Люди...
[Профиль]  [ЛС] 

SonicSlash

Флибустьер

Пост 06-Апр-2012 16:58 (спустя 19 часов)

[Q] 


_________________
[Профиль]  [ЛС] 

sadco

Шкипер

Пост 07-Апр-2012 21:12 (спустя 1 день 4 часа)

[Q] 

МАЛО
ЕЩЁ ДАВАЙ
[Профиль]  [ЛС] 

Хока34

Морской Волк

Пост 07-Апр-2012 21:46 (спустя 33 минуты)

[Q] 

ДАЙЁШ ФСЕ СЕРЫИ и БИстра!!!
[Профиль]  [ЛС] 

АлександрЪЪЪ

Морской Волк

79

Пост 09-Апр-2012 10:10 (спустя 1 день 12 часов)

[Q] 

[Профиль]  [ЛС] 

Hugin

Морской Волк

163

Пост 09-Апр-2012 20:21 (спустя 10 часов)

[Q] 

А когда вторую ждать?
[Профиль]  [ЛС] 

genkasper ®

4243

Пост 09-Апр-2012 22:58 (спустя 2 часа 36 минут)

[Q] 

А когда вторую ждать?
как появится озвучка от Лоста

_________________

обо всех исправлениях в темах пишите в ЛС
[Профиль]  [ЛС] 

АлександрЪЪЪ

Морской Волк

79

Пост 10-Апр-2012 12:47 (спустя 13 часов)

[Q] 

с любительской озвуякой уже выложили на трекере!
[Профиль]  [ЛС] 

Hugin

Морской Волк

163

Пост 10-Апр-2012 19:23 (спустя 6 часов)

[Q] 

с любительской озвуякой уже выложили на трекере!
не, охота лостовскую
[Профиль]  [ЛС] 

genkasper ®

4243

Пост 10-Апр-2012 21:45 (спустя 2 часа 22 минуты)

[Q] 

Добавлена 2-я серия, перекачайте торрент

_________________

обо всех исправлениях в темах пишите в ЛС
[Профиль]  [ЛС] 

Rommm

Лоцман

Пост 10-Апр-2012 22:49 (спустя 1 час 3 минуты)

[Q] 

Спс за оперативность
[Профиль]  [ЛС] 

АлександрЪЪЪ

Морской Волк

79

Пост 11-Апр-2012 07:16 (спустя 8 часов)

[Q] 


вторая серия гуд!!
[Профиль]  [ЛС] 

Hugin

Морской Волк

163

Пост 11-Апр-2012 17:47 (спустя 10 часов)

[Q] 

[Профиль]  [ЛС] 

SonicSlash

Флибустьер

Пост 11-Апр-2012 18:17 (спустя 29 минут)

[Q] 

2 серия после 30 минут что то на пиксели разлетелась и стала жутко лагать(((

_________________
[Профиль]  [ЛС] 

genkasper ®

4243

Пост 11-Апр-2012 19:13 (спустя 55 минут)

[Q] 

2 серия после 30 минут что то на пиксели разлетелась и стала жутко лагать(((
проверьте что у Вас с железом и ПО.

_________________

обо всех исправлениях в темах пишите в ЛС
[Профиль]  [ЛС] 

KeySt

Лоцман

Пост 12-Апр-2012 23:31 (спустя 1 день 4 часа)

[Q] 

[Профиль]  [ЛС] 

mjurs

Корсар

Пост 15-Апр-2012 10:01 (спустя 2 дня 10 часов)

[Q] 

Жду 3-ю серию au
[Профиль]  [ЛС] 
Показать сообщения:    
Ответить на тему

Текущее время: Сегодня 01:46

Часовой пояс: GMT + 4



Вы не можете начинать темы
Вы не можете отвечать на сообщения
Вы не можете редактировать свои сообщения
Вы не можете удалять свои сообщения
Вы не можете голосовать в опросах
Вы не можете прикреплять файлы к сообщениям
Вы не можете скачивать файлы

▼ Вниз