ML
     
  Уважаемый Гость!
Вы можете поддержать проект и зарегистрироваться у наших партнеров - онлайн-стратегия MyLands. При регистрации в игре Вы получите код, который сможете активировать после регистрации на pirat.ca и получить 1000 дублонов.

Ваш код:
ea554e7ed3eacceeae87a8b30a9de3f086c18a84
 
     

Мост / Bron / Broen (Сезон: 1 / 10 серий из 10) (Хенрик Георгсон, Шарлотта Зилинг, Лиза Сиве ) [2011 - 2012 г.г., Детектив, Триллер, HDRip] MVO (BaibaKo)

Ответить на тему
 
Автор
Сообщение

Пост 22-Апр-2012 11:56

[Q] 

erchine

Мост / Bron / Broen (Сезон: 1 ) Год выпуска: 2011-2012
Производство: Дания, Швеция
Жанр: Детектив, Триллер
Продолжительность серии: ~00:58:00 серия
Перевод: Любительский (многоголосый, закадровый) (BaibaKo)
Оригинальный аудиопоток: датский
Режиссер: Хенрик Георгсон, Шарлотта Зилинг, Лиза Сиве
В ролях
София Хелин, Ким Бодниа, Даг Малмберг, Рафаэль Петтерссон
Описание
На самой середине моста Орезунд, связывающего Швецию с Данией, происходит краткое отключение электроэнергии. Появление света знаменует собой появление незнакомого объекта: тело женщины, обращенное головой к Швеции, ногами к Дании. Чья полиция должна руководить расследованием убийства подброшенной за несколько минут мертвой женщины?
Шведская женщина-комиссар Сага Норен решает: это ее сфера ответственности, ведь убитая - шведский политик, председатель совета города Мальмё.
Но вот незадача: оказывается, вторая-то половина женщины - от датской проститутки, исчезнувшей более года назад... А это - сфера ответственности комиссара из Копенгагена, Мартина Роде, у которого и так хватает проблем (и личных, и очень личных, и профессиональных).
В любом случае, двум сыскарям придется работать вместе, а это, как оказалось, совсем нелегко: язык не всегда понятен, методы работы - разные, зарплата и представление об ответственности - очень отличаются, да и менталитет, несмотря на близкое соседство двух стран, не поддается никакому сравнению.
Единственное, что их объединяет - общий убийца, действующий по совершенно не понятным никому законам, идущий на 2 шага впереди и диктующий свои правила, имеющие серьезную социальную подоплеку.
Противник умный и опасный.
Сезон закрыт!
Источник/Качество: HDRip
Формат: AVI
Видео кодек: XviD
Аудио кодек: MP3
Видео: Xvid 720x400 25.00fps, 1 502 Kbps, Bits/(Pixel*Frame) : 0.209
Аудио 1: Русский MPEG Audio Layer 3 48000Hz stereo 192kbps
Аудио 2: Датский MPEG Audio Layer 3 48000Hz stereo 192kbps
General
Complete name : D:\Most.S1.2011-2012.HDRip\Broen.s01e01.HDRip.XviD.Rus-Dan.BaibaKo.tv.avi
Format : AVI
Format/Info : Audio Video Interleave
File size : 782 MiB
Duration : 57mn 32s
Overall bit rate : 1 900 Kbps
Writing application : VirtualDubMod 1.5.10.2 (build 2540/release)
Writing library : VirtualDubMod build 2540/release
Video
ID : 0
Format : MPEG-4 Visual
Format profile : Advanced [email protected]
Format settings, BVOP : No
Format settings, QPel : No
Format settings, GMC : No warppoints
Format settings, Matrix : Custom
Codec ID : XVID
Codec ID/Hint : XviD
Duration : 57mn 32s
Bit rate : 1 502 Kbps
Width : 720 pixels
Height : 400 pixels
Display aspect ratio : 16:9
Frame rate : 25.000 fps
Resolution : 8 bits
Colorimetry : 4:2:0
Scan type : Progressive
Bits/(Pixel*Frame) : 0.209
Stream size : 618 MiB (79%)
Writing library : XviD 1.2.1 (UTC 2008-12-04)
Audio #1
ID : 1
Format : MPEG Audio
Format version : Version 1
Format profile : Layer 3
Mode : Joint stereo
Format_Settings_ModeExtension : MS Stereo
Codec ID : 55
Codec ID/Hint : MP3
Duration : 57mn 31s
Bit rate mode : Constant
Bit rate : 192 Kbps
Channel(s) : 2 channels
Sampling rate : 48.0 KHz
Stream size : 79.0 MiB (10%)
Alignment : Aligned on interleaves
Interleave, duration : 40 ms (1.00 video frame)
Interleave, preload duration : 504 ms
Writing library : LAME3.99r
Encoding settings : -m j -V 4 -q 3 -lowpass 18.6 -b 192
Audio #2
ID : 2
Format : MPEG Audio
Format version : Version 1
Format profile : Layer 3
Mode : Joint stereo
Format_Settings_ModeExtension : MS Stereo
Codec ID : 55
Codec ID/Hint : MP3
Duration : 57mn 32s
Bit rate mode : Constant
Bit rate : 192 Kbps
Channel(s) : 2 channels
Sampling rate : 48.0 KHz
Stream size : 79.0 MiB (10%)
Alignment : Split accross interleaves
Interleave, duration : 40 ms (1.00 video frame)
Interleave, preload duration : 500 ms
Writing library : LAME3.99r
Encoding settings : -m j -V 4 -q 2 -lowpass 18.6 -b 192
Раздача ведётся путём добавления новых серий; при каждом добавлении создаётся новый торрент. Чтобы начать докачку новой серии, пользователям необходимо сделать следующее:
1. Остановить скачивание,
2. Удалить старый торрент у себя из клиента (старые серии удалять не надо),
3. Скачать новый торрент и запустить его у себя в клиенте вместо старого, при этом указать клиенту путь в старую папку куда и должно происходить скачивание новых серий.
Ваш клиент при этом должен произвести хеширование (проверку) старой папки (если не производит сам - помогите ему сделать это), и будет докачивать только те серии которых у вас ещё нет. Старые серии при этом не удаляются, а продолжают раздаваться!
Eсли вы уже удалили старые серии, то предотвратить повторную закачку старых серий можно, отжав галочку в соответствующих местах при запуске нового торрента. По возможности, желательно не удалять старые серии как можно дольше чтобы релизёр не столько продолжал раздавать старые серии, а смог сконцентрироваться на новых.
Download / Скачать

Хотите скачать бесплатно? Зарегистрируйтесь на сайте (ссылка на регистрацию). Pirat.ca - самый быстрый торрент трекер в рунете!

Как скачивать  ·   Что такое торрент  ·   Рейтинг и ограничения



Последний раз редактировалось: erchine (2012-06-13 00:49), всего редактировалось 25 раз(а)

Пост 22-Апр-2012 12:39 (спустя 43 минуты)

Топик был перенесен из форума Сериалы в форум Сериалы в эфире

gEmOkPaT
 

chtv

Шкипер

Пост 28-Апр-2012 15:02 (спустя 6 дней)

[Q] 

erchine, Спасибо. Высокий рейтинг у сериала, жаль только, что 4 серии пока.
[Профиль]  [ЛС] 

papa_doc

Штурман

Пост 29-Апр-2012 22:21 (спустя 1 день 7 часов)

[Q] 

А с какой частотой выкладываются серии? Вчера наткнулся, скачал.... оч понравилось!!!
[Профиль]  [ЛС] 

erchine ®

44807

Пост 30-Апр-2012 07:26 (спустя 9 часов)

[Q] 

Добавлена пятая серия.
А с какой частотой выкладываются серии?
Приблизительно одну серию в неделю переводят.
[Профиль]  [ЛС] 

papa_doc

Штурман

Пост 11-Май-2012 22:27 (спустя 11 дней)

[Q] 

[Профиль]  [ЛС] 

erchine ®

44807

Пост 13-Май-2012 16:29 (спустя 1 день 18 часов)

[Q] 

Я тут. А вы забирать не хотите ey
Просили - забирайте!
[Профиль]  [ЛС] 

Kote Makaradze

5934

Пост 16-Май-2012 09:30 (спустя 2 дня 17 часов)

[Q] 

Шведская женщина-комиссар Сага Норен решает: это ее сфера ответственности, ведь убитая - шведский политик, председатель совета города Мальмё.Но вот незадача: оказывается, вторая-то половина женщины - от датской проститутки, исчезнувшей более года назад...
Интригует, надо посмотреть. Спасибо.

_________________
Подпись отключена за нарушение правил форума
[Профиль]  [ЛС] 

wic777

Корсар

Пост 21-Май-2012 07:32 (спустя 4 дня)

[Q] 

[Профиль]  [ЛС] 

evgenmzk

Лоцман

Пост 11-Июн-2012 17:22 (спустя 21 день)

[Q] 

на раздачу встаньте
[Профиль]  [ЛС] 

nadabibak

Гроза морей

Пост 12-Июн-2012 21:47 (спустя 1 день 4 часа)

[Q] 

Любопытный сериал.
[Профиль]  [ЛС] 

Пост 16-Июн-2012 06:58 (спустя 3 дня)

Топик был перенесен из форума Сериалы в эфире в форум Зарубежные сериалы

gEmOkPaT
 

Tirli

Пост 04-Июл-2012 15:32 (спустя 21 день)

[Q] 

Мне очень нравится шарлотка.
[Профиль]  [ЛС] 

Bozo

Флибустьер

Пост 12-Ноя-2012 19:10 (спустя 4 месяца 8 дней)

[Q] 

раздайте плиз !! ))
[Профиль]  [ЛС] 

Bozo

Флибустьер

Пост 13-Ноя-2012 22:20 (спустя 1 день 3 часа)

[Q] 

[Профиль]  [ЛС] 

Nostromizer

Морской Волк

Пост 12-Мар-2013 16:19 (спустя 3 месяца 28 дней)

[Q] 


_________________
Mark It Zero!
[Профиль]  [ЛС] 

CHARLI2236

1090

Пост 25-Июл-2013 18:20 (спустя 4 месяца 13 дней)

[Q] 

10

_________________
[Профиль]  [ЛС] 
Показать сообщения:    
Ответить на тему

Текущее время: Сегодня 12:11

Часовой пояс: GMT + 4



Вы не можете начинать темы
Вы не можете отвечать на сообщения
Вы не можете редактировать свои сообщения
Вы не можете удалять свои сообщения
Вы не можете голосовать в опросах
Вы не можете прикреплять файлы к сообщениям
Вы не можете скачивать файлы

▼ Вниз