ML
     
  Уважаемый Гость!
Вы можете поддержать проект и зарегистрироваться у наших партнеров - онлайн-стратегия MyLands. При регистрации в игре Вы получите код, который сможете активировать после регистрации на pirat.ca и получить 1000 дублонов.

Ваш код:
47bfc18b89c74e4ae0d974e9b6943639e2bff08e
 
     

Тихий океан (Тихоокеанский фронт) / The Pacific [The Complete Collection] (Сезон: 1 / Серии: 1-10 из 10) (Стивен Спилберг, Том Хэнкс / Steven Spielberg, Tom Hanks) [2010 г., драма, военный, BDRip-AVC] MVO (LostFilm) [internal release]

Ответить на тему
 
Автор
Сообщение

Пост 13-Май-2012 11:58

[Q] 

Amethyst

Тихий океан (Тихоокеанский фронт) / The Pacific(Сезон: 1 / Серии: 1-10 из 10) Год выпуска: 2010
Мировая премьера: 14 марта 2010
Российская премьера: 10 октября 2010
Производство: США
Жанр: Драма, военный
Продолжительность серии: 10 x ~ 00:57:00
Перевод: Профессиональный (многоголосый, закадровый)-
Режиссер: Стивен Спилберг, Том Хэнкс / Steven Spielberg, Tom Hanks
В ролях
Боб Рамнок, Тоби Мур, Джошуа Битон, Джеймс Бэдж Дэйл, Джозеф Маццелло, Джон Седа, Джон Бернтал, Том Бадж, Джош Хелман, Эштон Холмс
Описание
Сериал «Тихий океан» — новое творение создателей знаменитого сериала «Братья по оружию» (Band of Brothers) Тома Хэнкса и Стивена Спилберга. Сериал представляет собой историю трех солдат армии США, которые принимают участие в боевых действиях на Тихом океане. Основа сценария The Pacific — это несколько документальных источников, в частности книга Евгения Следжа «With the Old Breed», мемуары Роберта Лекки «Каска вместо подушки» («Helmet for My Pillow»), а также реальная история морского пехотинца Джона Бэсилона — единственного морского пехотинца, заслужившего своим героизмом во время войны и Почётную медаль Конгресса (Medal of Honor), и военно-морской крест (Navy Cross), и «Пурпурное сердце» (Purple Heart) и погибшего в битве при Иводзиме.

Источник/Качество: BDRip-AVC
Формат: MKV
Видео кодек: AVC
Аудио кодек: AC3
Видео: AVC, 1024х576, 2100 kbps, 23.976 fps
Аудио: AC-3, 6 ch, 384 Кбит/с, 48.0 kHz
Общее
Уникальный идентификатор : 194849510540383975932792422489401347179 (0x9296A69444A4708F97E7C1A94B3C4C6B)
Полное имя : D:\Торенты\Tihiy okean (Tihookeanskiy front)(2010)BDRip.[Amethyst]\Tihiy okean (Tihookeanskiy front)(2010)BDRip.[Amethyst]10.mkv
Формат : Matroska
Версия формата : Version 2
Размер файла : 1,08 Гбайт
Продолжительность : 1 ч. 2 м.
Общий поток : 2485 Кбит/сек
Название фильма : Тихий океан (Тихоокеанский фронт)(2001)BDRip.[Amethyst]
Дата кодирования : UTC 2012-05-13 06:59:41
Программа кодирования : mkvmerge v5.4.0 ('Piper') built on Mar 10 2012 13:34:39
Библиотека кодирования : libebml v1.2.3 + libmatroska v1.3.0
Видео
Идентификатор : 1
Формат : AVC
Формат/Информация : Advanced Video Codec
Профиль формата : [email protected]
Параметр CABAC формата : Да
Параметр ReFrames формата : 5 кадров
Режим смешивания : Header stripping
Идентификатор кодека : V_MPEG4/ISO/AVC
Продолжительность : 1 ч. 2 м.
Битрейт : 2100 Кбит/сек
Ширина : 1024 пикселя
Высота : 576 пикселей
Соотношение сторон : 16:9
Частота кадров : 23,976 кадра/сек
Цветовое пространство : YUV
Субдискретизация насыщенности : 4:2:0
Битовая глубина : 8 бит
Тип развёртки : Прогрессивная
Бит/(Пиксели*Кадры) : 0.148
Размер потока : 914 Мбайт (83%)
Библиотека кодирования : x264 core 119 r2106 07efeb4
Настройки программы : cabac=1 / ref=5 / deblock=1:-2:-1 / analyse=0x3:0x113 / me=umh / subme=8 / psy=1 / psy_rd=1.00:0.20 / mixed_ref=1 / me_range=16 / chroma_me=1 / trellis=1 / 8x8dct=1 / cqm=0 / deadzone=21,11 / fast_pskip=1 / chroma_qp_offset=-3 / threads=6 / sliced_threads=0 / nr=0 / decimate=1 / interlaced=0 / bluray_compat=0 / constrained_intra=0 / bframes=3 / b_pyramid=2 / b_adapt=2 / b_bias=0 / direct=3 / weightb=1 / open_gop=0 / weightp=2 / keyint=250 / keyint_min=23 / scenecut=40 / intra_refresh=0 / rc_lookahead=50 / rc=2pass / mbtree=1 / bitrate=2100 / ratetol=1.0 / qcomp=0.60 / qpmin=0 / qpmax=69 / qpstep=4 / cplxblur=20.0 / qblur=0.5 / ip_ratio=1.40 / aq=1:1.00
Default : Да
Forced : Нет
Аудио
Идентификатор : 2
Формат : AC-3
Формат/Информация : Audio Coding 3
Расширение режима : CM (complete main)
Режим смешивания : Header stripping
Идентификатор кодека : A_AC3
Продолжительность : 1 ч. 2 м.
Вид битрейта : Постоянный
Битрейт : 384 Кбит/сек
Каналы : 6 каналов
Расположение каналов : Front: L C R, Side: L R, LFE
Частота : 48,0 КГц
Битовая глубина : 16 бит
Метод сжатия : С потерями
Размер потока : 171 Мбайт (15%)
Default : Да
Forced : Нет
Making The Pacific (История создания)
Эпизод 1: Guadalcanal/Leckie (Гуадалканал)
Эпизод 2: Basilone (Бэсилоун)
Эпизод 3: Melbourne (Мельбурн)
Эпизод 4: Gloucester/Pavuvu/Banika (Глостер/Павуву/Баника)
Эпизод 5: Peleliu Landing (Высадка на Палау)
Эпизод 6: Peleliu Airfield (Аэродром Палау)
Эпизод 7: Peleliu Hills (Горы Палау)
Эпизод 8: Iwo Jima (Иводзима)
Эпизод 9: Okinawa (Окинава)
Эпизод 10: Home (Возвращение домой)
• Основой сценария является несколько документальных источников, в частности книга Евгения Следжа «With the Old Breed», мемуары Роберта Лекки «Каска вместо подушки» («Helmet for My Pillow»), а также реальная история морского пехотинца Джона Бэсилона — единственного морского пехотинца, заслужившего своим героизмом во время войны и Почётную медаль Конгресса (Medal of Honor), и военно-морской крест (Navy Cross), и «Пурпурное сердце» (Purple Heart) и погибшего в битве при Иводзиме.
Внимание! В эпизодах (2,3) присутствует ненормативная лексика.
Download / Скачать

Хотите скачать бесплатно? Зарегистрируйтесь на сайте (ссылка на регистрацию). Pirat.ca - самый быстрый торрент трекер в рунете!

Как скачивать  ·   Что такое торрент  ·   Рейтинг и ограничения

nadabibak

Гроза морей

Пост 13-Май-2012 13:39 (спустя 1 час 41 минута)

[Q] 

Мне сериал понравился, помогу с раздачей
[Профиль]  [ЛС] 

Пост 14-Май-2012 18:59 (спустя 1 день 5 часов)

Топик был перенесен из форума Сериалы в форум Зарубежные сериалы

Андря
 

konvikt

Корсар

136

Пост 14-Авг-2012 21:18 (спустя 3 месяца 1 день)

[Q] 

Это лучший сериал про войну который я смотрел, понравился даже больше чем "Братья по оружию" Снято на высшем уровне! Всем советую посмотреть этот минисериал, не пожалеете потраченного времени!

_________________
"без музыки жизнь была бы ошибкой..."(c)
[Профиль]  [ЛС] 

Tapac84

Корсар

Пост 19-Мар-2013 19:29 (спустя 7 месяцев 4 дня)

[Q] 

согласен, фильм очень хороший, любителям военной тематики смотреть однозначно
[Профиль]  [ЛС] 

Simsim

Морской Волк

Пост 20-Мар-2013 18:47 (спустя 23 часа)

[Q] 

супер!
[Профиль]  [ЛС] 

vfhecz

Лоцман

Пост 14-Апр-2013 01:39 (спустя 24 дня)

[Q] 

поддержите.. плиизь....пожалуйста!!! а то прогноз скачивания anime108 - 10 недель
[Профиль]  [ЛС] 

vfhecz

Лоцман

Пост 14-Апр-2013 01:44 (спустя 4 минуты)

[Q] 

..уже 24 недели ca bc bu ak anime85 (не совсем понятно, что последний мульт значит)..
[Профиль]  [ЛС] 

vfhecz

Лоцман

Пост 14-Апр-2013 01:56 (спустя 11 минут)

[Q] 

кошмар-кошмарный - 36 недель!!!! ну плиииизььь!!! очень хочется посмотреть!!!! буду месяц на раздаче сидеть!!!!
[Профиль]  [ЛС] 

Логан

Штурман

Пост 17-Июн-2013 23:58 (спустя 2 месяца 3 дня)

[Q] 

[Профиль]  [ЛС] 

Логан

Штурман

Пост 18-Июн-2013 21:33 (спустя 21 час)

[Q] 

Нет раздачи вообще :С
[Профиль]  [ЛС] 

Пират

Шкипер

Пост 13-Янв-2014 00:00 (спустя 6 месяцев 24 дня)

[Q] 

прикольный сериал!но братья по оружию понравился больше!
[Профиль]  [ЛС] 

BOTan58

Штурман

Пост 14-Апр-2014 23:44 (спустя 3 месяца 1 день)

[Q] 

Встаньте на раздачу, камрадс!
[Профиль]  [ЛС] 

korak

Штурман

Пост 30-Май-2015 23:16 (спустя 1 год 1 месяц)

[Q] 

Дайте скорости. плизззз
[Профиль]  [ЛС] 
Показать сообщения:    
Ответить на тему

Текущее время: Сегодня 07:03

Часовой пояс: GMT + 4



Вы не можете начинать темы
Вы не можете отвечать на сообщения
Вы не можете редактировать свои сообщения
Вы не можете удалять свои сообщения
Вы не можете голосовать в опросах
Вы не можете прикреплять файлы к сообщениям
Вы не можете скачивать файлы

▼ Вниз