ML
     
  Уважаемый Гость!
Вы можете поддержать проект и зарегистрироваться у наших партнеров - онлайн-стратегия MyLands. При регистрации в игре Вы получите код, который сможете активировать после регистрации на pirat.ca и получить 1000 дублонов.

Ваш код:
f612af22ea70acf5cbe90707ac5a076d215f8f7f
 
     

Как я встретил вашу маму (7 сезон 24 из 24) / How I met your mother (7 season 24 of 24) (Картер Бейс) [2011 г., Комедия, HDTVRip]

Ответить на тему
 
Автор
Сообщение

Пост 22-Май-2012 12:34

[Q] 

Valter

Шкипер

Как я встретил вашу маму (7 сезон 24 из 24) / How I met your mother (7 season 24 of 24)
Год выпуска: 2011
Страна: США
Жанр: Комедия
Продолжительность: ~00:21:00
Перевод: Профессиональный (одноголосый)
Режиссер: Картер Бейс
В ролях: Джош Рэднор, Джейсон Сегел, Коби Смалдерс, Нил Патрик Хэррис, Эллисон Хэнниган
Описание:В первых сериях сезона Барни и Тед вспоминают свадьбу Панчи. Маршал получает работу в фирме, занимающейся охраной окружающей среды. Робин вспоминает о своих чувствах к Барни. Барни проигрывает спор Маршалу и Лили и вынужден целый год носить галстук с изображением уток. По решению суда Робин посещает сеансы психотерапии и начинает встречаться со своим психотерапевтом, Кевином. Лили и Маршал узнают пол своего будущего ребенка. Робин сообщает Барни, что тот на половину канадец.
Доп. информация: Озвучено по версии "Кураж-Бамбей"
Качество: HDTVRip
Формат: AVI
Видео кодек: XviD
Аудио кодек: MP3
Видео: XVID 624x352 23.98fps 986 Kbps
Аудио: Русский: MPEG Audio Layer 3 48kHz stereo 160kbps
Общее
Полное имя : E:\How I Met Your Mother - Season 7 [Kuraj-Bambey.Ru]\How.I.Met.Your.Mother.S07E09_HowiMet.RU_.avi
Формат : AVI
Формат/Информация : Audio Video Interleave
Размер файла : 195 Мбайт
Продолжительность : 21 м.
Общий поток : 1299 Кбит/сек
Программа кодирования : VirtualDubMod 1.5.10.2 (build 2540/release)
Библиотека кодирования : VirtualDubMod build 2540/release
Видео
Идентификатор : 0
Формат : MPEG-4 Visual
Профиль формата : Advanced [email protected]
Параметр BVOP формата : 2
Параметр QPel формата : Нет
Параметр GMC формата : Без точки перехода
Параметр матрицы формата : Default (H.263)
Идентификатор кодека : XVID
Идентификатор кодека/Подсказка : XviD
Продолжительность : 21 м.
Битрейт : 997 Кбит/сек
Ширина : 624 пикселя
Высота : 352 пикселя
Соотношение сторон : 16:9
Частота кадров : 23,976 кадра/сек
Цветовое пространство : YUV
Субдискретизация насыщенности : 4:2:0
Битовая глубина : 8 бит
Тип развёртки : Прогрессивная
Метод сжатия : С потерями
Бит/(Пиксели*Кадры) : 0.189
Размер потока : 150 Мбайт (77%)
Библиотека кодирования : XviD 63
Аудио #1
Идентификатор : 1
Формат : MPEG Audio
Версия формата : Version 1
Профиль формата : Layer 3
Идентификатор кодека : 55
Идентификатор кодека/Подсказка : MP3
Продолжительность : 21 м.
Вид битрейта : Постоянный
Битрейт : 160 Кбит/сек
Каналы : 2 канала
Частота : 48,0 КГц
Метод сжатия : С потерями
Размер потока : 24,0 Мбайт (12%)
Выравнивание : Разделение по промежуткам
Продолжительность промежутка : 42 мс. (1,00 видеокадр)
Время предзагрузки промежутка : 500 мс.
Аудио #2
Идентификатор : 2
Формат : MPEG Audio
Версия формата : Version 1
Профиль формата : Layer 3
Идентификатор кодека : 55
Идентификатор кодека/Подсказка : MP3
Продолжительность : 21 м.
Вид битрейта : Постоянный
Битрейт : 128 Кбит/сек
Каналы : 2 канала
Частота : 48,0 КГц
Метод сжатия : С потерями
Размер потока : 19,2 Мбайт (10%)
Выравнивание : Соединение по промежуткам
Продолжительность промежутка : 42 мс. (1,00 видеокадр)
Время предзагрузки промежутка : 504 мс.
Библиотека кодирования : LAME3.98r
Настройки программы : -m s -V 4 -q 3 -lowpass 17 -b 128


Download / Скачать

Хотите скачать бесплатно? Зарегистрируйтесь на сайте (ссылка на регистрацию). Pirat.ca - самый быстрый торрент трекер в рунете!

Как скачивать  ·   Что такое торрент  ·   Рейтинг и ограничения

Пост 23-Май-2012 02:15 (спустя 13 часов)

Топик был перенесен из форума Сериалы в форум Зарубежные сериалы

Андря
 

sorvigolova

Корсар

799

Пост 03-Июн-2012 14:10 (спустя 12 дней)

[Q] 

спасибо,встаньте на раздачу!!!
[Профиль]  [ЛС] 

okorm

889

Пост 04-Июн-2012 16:45 (спустя 1 день 2 часа)

[Q] 

[Профиль]  [ЛС] 

Андря

8419

Пост 18-Май-2016 13:03 (спустя 3 года 11 месяцев)

[Q] 

Полного источника не было: 5 месяцев 10 дней

_________________
Като Тешекика
[Профиль]  [ЛС] 
Показать сообщения:    
Ответить на тему

Текущее время: Сегодня 00:28

Часовой пояс: GMT + 4



Вы не можете начинать темы
Вы не можете отвечать на сообщения
Вы не можете редактировать свои сообщения
Вы не можете удалять свои сообщения
Вы не можете голосовать в опросах
Вы не можете прикреплять файлы к сообщениям
Вы не можете скачивать файлы

▼ Вниз