Уважаемый Гость!
Вы можете поддержать проект и зарегистрироваться у наших партнеров - онлайн-стратегия MyLands. При регистрации в игре Вы получите код, который сможете активировать после регистрации на pirat.ca и получить 1000 дублонов.

Ваш код:
3bc14af8213a4505af8570c7bdcd59303a238355
 
     

Войнович В.Н. - Жизнь и необычайные приключения солдата Ивана Чонкина: 1 - Лицо неприкосновенное, 2 - Претендент на престол, 3 - Перемещенное лицо [2012 г., Вячеслав Герасимов, Ирина Воробьёва, MP3, 27:59:30]

Ответить на тему
 
Автор
Сообщение

Пост 08-Дек-2012 12:03

[Q] 

Эвакуация

-
Жизнь и необычайные приключения
солдата Ивана Чонкина
Книга 1. Лицо неприкосновенное
Книга 2. Претендент на престол
Книга 3. Перемещенное лицо
-- Год выпуска: 2012 г.
Автор: Войнович В.Н.
Исполнители: Вячеслав Герасимов, Ирина Воробьёва
Жанр: Роман-анекдот
Издательство: Нигде не купишь (Клуб любителей аудиокниг)
Тип аудиокниги: аудиокнига-Аудио кодек: MP3
Битрейт аудио: 96 kbps, 44 kHz, Mono
Время звучания: 27:59:30-Описание:
Чонкин жил, Чонкин жив, Чонкин будет жить! Представляем Вам полную версию уникальной эпопеи XX века – «Жизнь и необычайные приключения солдата Ивана Чонкина». По словам самого автора, на ее написание ушло в общей сложности 49 лет.
Две первые книги – «Лицо неприкосновенное» и «Претендент на престол» - впервые были опубликованы в 1975 году, книга третья – «Перемещенное лицо» - в 2007-м.
Название: Жизнь и необычайные приключения солдата Ивана Чонкина. Лицо неприкосновенное
Прочитано по изданию: Юность, 1988, № 12, 1989 г. №№ 1 и 2
Год выпуска: 2012
Исполнитель: Вячеслав Герасимов
Звукорежиссёр: Людмила Каверзнева
Жанр: Роман-анекдот
Издательство: Нигде не купишь (Клуб любителей аудиокниг)
Тип аудиокниги: аудиокнига
Аудио кодек: MP3
Битрейт аудио: 96 kbps, 44 kHz, Mono
Время звучания: 10:18:49
Описание:
Книга первая из знаменитой трилогии «Жизнь и необычайные приключения солдата Ивана Чонкина» остроумно и непредвзято рисует будни простодушного солдата во время Великой Отечественной войны. Чонкин не идиот - он, как высказался сам автор, «просто оказывался в идиотских ситуациях, в которых нормальный человек вполне может стать идиотом. А это наши, обычные советские ситуации». Со временем горечь политической сатиры смягчилась, но искрометный юмор Войновича от этого нисколько не остыл.
Общее
Полное имя : [Pirat.ca]_Voinovich_Ivan.Chonkin\1. Лицо неприкосновенное\0001.mp3
Формат : MPEG Audio
Размер файла : 14,7 Мбайт
Продолжительность : 21 м.
Режим общего битрейта : Постоянный
Общий поток : 96,0 Кбит/сек
Альбом : Жизнь и необычайные приключения солдата Ивана Чонкина 1
Трек : Лицо неприкосновенное
Трек/Положение : 01
Трек/Всего : 32
Группирование : ????? ?? ??????
Исполнитель : Войнович Владимир
Кодирование произвёл : V131
Издатель : Клуб Любителей АудиоКниг
Жанр : Other
Дата записи : 2012
Правообладатель : Нигде Не Купишь
Обложка : Yes
Тип обложки : Cover (front)
MIME-тип обложки : image/jpeg
Примечание : Вячеслав Герасимов
Аудио
Формат : MPEG Audio
Версия формата : Version 1
Профиль формата : Layer 3
Продолжительность : 21 м.
Вид битрейта : Постоянный
Битрейт : 96,0 Кбит/сек
Каналы : 1 канал
Частота : 44,1 КГц
Метод сжатия : С потерями
Размер потока : 14,6 Мбайт (100%)
Название: Жизнь и необычайные приключения солдата Ивана Чонкина. Претендент на престол
Прочитано по изданию: Юность, 1990, №№ 6-8
Год выпуска: 2012
Исполнитель: Вячеслав Герасимов
Звукорежиссёр: Людмила Каверзнева
Жанр: Роман-анекдот
Издательство: Нигде не купишь (Клуб любителей аудиокниг)
Тип аудиокниги: аудиокнига
Аудио кодек: MP3
Битрейт аудио: 96 kbps, 44 kHz, Mono
Время звучания: 07:21:21
Описание:
Чонкин жил, Чонкин жив, Чонкин будет жить! Простой солдат Иван Чонкин во время Великой Отечественной попадает в смехотворные ситуации: по незнанию берет в плен милиционеров, отстреливается от своих. Кто он? Герой самой смешной политической сатиры советской эпохи. Со временем горечь политического откровения пропала, а вот до слез смешной Чонкин советскую власть пережил!
Общее
Полное имя : [Pirat.ca]_Voinovich_Ivan.Chonkin\2. Претендент на престол\0001.mp3
Формат : MPEG Audio
Размер файла : 16,7 Мбайт
Продолжительность : 24 м.
Режим общего битрейта : Постоянный
Общий поток : 96,0 Кбит/сек
Альбом : Жизнь и необычайные приключения солдата Ивана Чонкина. Книга вторая.
Трек : Претендент на престол
Трек/Положение : 01
Трек/Всего : 19
Группирование : ????? ?? ??????
Исполнитель : Войнович Владимир
Кодирование произвёл : V131
Издатель : Клуб Любителей АудиоКниг
Жанр : Other
Дата записи : 2012
Правообладатель : Нигде Не Купишь
Обложка : Yes
Тип обложки : Cover (front)
MIME-тип обложки : image/jpeg
Примечание : Вячеслав Герасимов
Аудио
Формат : MPEG Audio
Версия формата : Version 1
Профиль формата : Layer 3
Продолжительность : 24 м.
Вид битрейта : Постоянный
Битрейт : 96,0 Кбит/сек
Каналы : 1 канал
Частота : 44,1 КГц
Метод сжатия : С потерями
Размер потока : 16,7 Мбайт (100%)
Название: Жизнь и необычайные приключения солдата Ивана Чонкина. Перемещенное лицо
Прочитано по изданию: М., Эксмо, 2008
Год выпуска: 2012
Исполнитель: Ирина Воробьёва
Звукорежиссёр: Елена Ситникова
Жанр: Роман-анекдот
Издательство: Нигде не купишь (Клуб любителей аудиокниг)
Тип аудиокниги: аудиокнига
Аудио кодек: MP3
Битрейт аудио: 96 kbps, 44 kHz, Mono
Время звучания: 10:19:20
Описание:
Книга третья из знаменитой трилогии «Жизнь и необычайные приключения солдата Ивана Чонкина» продолжает остроумный и беспристрастный рассказ о буднях простодушного героя, вышла уже в 2007 году. Чонкин снова в центре заговоров и политических интриг, он также наивен и непосредственен. Притворство, ложь и предательство, сталкиваясь с ним, становятся невероятно смешными и беспомощными
Общее
Полное имя : [Pirat.ca]_Voinovich_Ivan.Chonkin\3. Перемещенное лицо\0001.mp3
Формат : MPEG Audio
Размер файла : 5,80 Мбайт
Продолжительность : 8 м. 21 с.
Режим общего битрейта : Постоянный
Общий поток : 96,0 Кбит/сек
Альбом : Жизнь и необычайные приключения солдата Ивана Чонкина. Книга третья.
Трек : Перемещённое лицо
Трек/Положение : 01
Трек/Всего : 83
Группирование : ????? ?? ??????
Исполнитель : Войнович Владимир
Кодирование произвёл : V131
Издатель : Клуб Любителей АудиоКниг
Жанр : Other
Дата записи : 2012
Правообладатель : Нигде Не Купишь
Обложка : Yes
Тип обложки : Cover (front)
MIME-тип обложки : image/jpeg
Примечание : Воробьева Ирина
Аудио
Формат : MPEG Audio
Версия формата : Version 1
Профиль формата : Layer 3
Продолжительность : 8 м. 22 с.
Вид битрейта : Постоянный
Битрейт : 96,0 Кбит/сек
Каналы : 1 канал
Частота : 44,1 КГц
Метод сжатия : С потерями
Размер потока : 5,74 Мбайт (99%)
Влади́мир Никола́евич Войно́вич (также Во́йнович; род. 26 сентября 1932, Сталинабад Таджикской ССР) — русский писатель, поэт и драматург.
Владимир Войнович родился в Сталинабаде, в семье журналиста, ответственного секретаря республиканской газеты «Коммунист Таджикистана» и редактора областной газеты «Рабочий Ходжента» Николая Павловича Войновича (1905—1987), частично сербского происхождения и родом из уездного городка Новозыбков Черниговской губернии (ныне Брянской области), и сотрудницы редакции этих газет, а впоследствии учительницы математики Розалии Колмановны (Климентьевны) Гойхман (1908—1978), родом из местечка Хащеватое Гайворонского уезда Херсонской губернии (ныне Кировоградской области Украины).
В юности в возрасте 8 лет с семьёй переехал в Запорожье. После эвакуации вернулся туда, где и жил с 13-и до 19-и лет. Там окончил ремесленное училище, работал на алюминиевом заводе, на стройке, учился в аэроклубе, прыгал с парашютом.
После войны часто менял место жительства, работал пастухом, столяром, плотником, слесарем и авиамехаником.
В 1950 году на 4 года призывается в армию, во время службы (ПНР) старается овладеть мастерством стихосложения.
В 1956 году приехал в Москву, дважды поступал в Литинститут, но не был принят. Проучился полтора года в Московском пединституте (1957—1959), ездил на целину в Казахстан, где и были написаны его первые прозаические произведения (1958).
В 1960 году устроился редактором на радио. Написанную вскоре на его стихи песню о советских космонавтах («Четырнадцать минут до старта») исполнили на орбите летавшие там космонавты, при встрече их на Земле её процитировал и встречавший их Хрущёв — она получила всесоюзную известность (фактически, став гимном космонавтики), Войнович же «на следующее утро проснулся знаменитым». К нему тут же стали благоволить «генералы от литературы», предлагая различные преференции, что в итоге вылилось в принятие Войновича в Союз писателей СССР (1962).
Автор текстов к более чем к 40 песням, однако последовавшие за взлётом известности предложения печатать свои стихи в центральных журналах отклонил, желая сосредоточится на прозе. Публикация повести «Мы здесь живём» («Новый мир», 1961 № 1) способствовала укреплению славы писателя.
Роман «Жизнь и необычайные приключения солдата Ивана Чонкина», писавшийся с 1963 года, ходил в самиздате. Первая часть была опубликована (без разрешения автора) в 1969 году во Франкфурте-на-Майне, вся книга — в 1975 году в Париже.
В конце 1960-х годов принимал активное участие в движении за права человека, что вызвало конфликт с властями. За свою правозащитную деятельность и сатирическое представление советской действительности писатель подвергался преследованию — в 1974 году исключён из Союза писателей СССР, но принят в члены ПЕН-клуба во Франции.
В 1975 году, после публикации «Чонкина» за рубежом, Войнович был вызван для беседы в КГБ, где ему предложили издаваться в СССР. Далее, для обсуждения условий снятия запрета на издание отдельных его работ его пригласили на вторую встречу — на этот раз в номере 408 гостиницы «Метрополь». Там писатель был отравлен психотропным препаратом, что имело серьезные последствия, после этого долгое время он плохо себя чувствовал, это сказалось на его работе над продолжением «Чонкина». После данного инцидента Войнович написал открытое письмо Андропову, ряд обращений в зарубежные СМИ и позднее описал этот эпизод в небольшой повести.
В декабре 1980 года был выслан из СССР, а в 1981 году — лишён советского гражданства Указом Президиума Верховного совета СССР (в 1990 году возвращено указом М. Горбачева).
В 1980—1992 годах жил в ФРГ, затем в США. Сотрудничал с радио «Свобода». В 1990 году, во время перестройки, когда наступили новые времена, вернулся в СССР. После распада СССР прислал свой вариант текста нового гимна России (с весьма ироничным содержанием) на проводимый конкурс, который, как ни странно, был принят к участию.
Занимается живописью — первая персональная выставка открылась 5 ноября 1996 года в московской галерее «Асти». Сейчас живёт в своём доме под Москвой.
По оценке Вольфганга Казака, «писатель-реалист, замечательно изображающий человеческие характеры и обладающий особым даром живо запечатлевать отдельные сцены».
Download / Скачать

Хотите скачать бесплатно? Зарегистрируйтесь на сайте (ссылка на регистрацию). Pirat.ca - самый быстрый торрент трекер в рунете!

Как скачивать  ·   Что такое торрент  ·   Рейтинг и ограничения

Амангельды

37498

Пост 08-Дек-2012 18:04 (спустя 6 часов)

[Q] 

Помню, в начале 90-х читал "Чонкина" в вагоне метро, не удержался и ЗАРЖАЛ в голос...
Мде... Стыдно не было вообще...

_________________

Товарищ, верь, пройдет она,
Так называемая гласность.
И вот тогда госбезопасность
Припомнит ваши имена
Раздачи от Амангельды - ТЫНЦ
[Профиль]  [ЛС] 

SvKos63

Юнга

Пост 26-Сен-2014 20:59 (спустя 1 год 9 месяцев)

[Q] 

Книга отличная! Читал в начале восьмидесятых учась в институте, глядя на меня (тоже ржал...) - книгу прочли и родители. Это единственная (к сожалению) книга прочитанная всей семьей... А в добавок еще исполнение Вячеслава Герасимова - за уши не оторвешь!
[Профиль]  [ЛС] 
Показать сообщения:    
Ответить на тему

Текущее время: Сегодня 22:33

Часовой пояс: GMT + 4



Вы не можете начинать темы
Вы не можете отвечать на сообщения
Вы не можете редактировать свои сообщения
Вы не можете удалять свои сообщения
Вы не можете голосовать в опросах
Вы не можете прикреплять файлы к сообщениям
Вы не можете скачивать файлы

▼ Вниз