Уважаемый Гость!
Вы можете поддержать проект и зарегистрироваться у наших партнеров - онлайн-стратегия MyLands. При регистрации в игре Вы получите код, который сможете активировать после регистрации на pirat.ca и получить 1000 дублонов.

Ваш код:
5482a7ad194f2534e2ea418a91fb409e57269e3b
 
     

Соловьёв Л.В. - Дилогия о Ходже Насреддине. Книга 1 - Возмутитель спокойствия, Книга 2 - Очарованный принц [2013 г., Татьяна Телегина, Ирина Воробьёва, MP3, 24:44:47]

Ответить на тему
 
Автор
Сообщение

Пост 31-Янв-2013 15:09

[Q] 

Эвакуация

-Дилогия о Ходже НасреддинеКнига 1 - Возмутитель спокойствияКнига 2 - Очарованный принц-- Год выпуска: 2013 г.
Автор: Соловьёв Л.В.
Прочитано по изданию: СПб., Прайм, М., Олмо-Пресс, 2004
Исполнители: Татьяна Телегина и Ирина Воробьёва
Звукорежиссёры: Алевтина Федорова и Алла Тополева
Жанр: Юмор и сатира
Издательство: Нигде не купишь (Клуб любителей аудиокниг)
Тип аудиокниги: аудиокнига--Аудио кодек: MP3
Битрейт аудио: 96 kbps, 44 kHz, Mono
Время звучания: 24:44:47=10:04:10+14:40:37--
Описание:
Книга первая - «Возмутитель спокойствия» - прекрасная добрая книга, занимающая почетное место в сокровищнице русской литературы, первая часть дилогии Леонида Соловьева о похождениях Ходжи Насреддина, основанная на фольклоре Средней Азии. Приключения веселого, хитрого бродяги, героя множества анекдотов, притч, сказок давно уже обрели всемирную известность. Движимый ненавистью к жадным богачам, кормившимся за счет простого народа, он использует всевозможные уловки, чтобы облапошить блюстителей порядка и воздать по заслугам негодяям и подлецам, спрятавшимся за широкой спиной закона.
Книга вторая – «Очарованный принц» - вторая часть дилогии - была написана Леонидом Соловьевым в лагере, где писатель сидел по обвинению в подготовке террористического акта. В этой книге беззаботный бродяга и мудрец продолжает бороться с несправедливостью и пороком, неизменно становясь на сторону слабых и угнетенных. Он претворяет в жизнь хитрый замысловатый план, дабы справедливость была восстановлена, и зло получило по заслугам.
Леонид Васильевич Соловьёв (1906—1962) — советский писатель, сценарист, автор дилогии о Ходже Насреддине.
Леонид Соловьёв родился 6 (19) августа 1906 в городе Триполи (Ливан) в семье помощника инспектора северо-сирийских школ Императорского Православного Палестинского общества.
В 1909 году семья вернулась в Россию, откуда в 1921 году переселилась в Коканд.
Леонид Соловьёв начал печататься с 1923 года в газете «Туркестанская правда» (с 1924 года — «Правда Востока») и до 1930 года работал специальным корреспондентом этой газеты. Во время поездок по Ферганской области в 1924—1925 годах Л. В. Соловьёв собирал и изучал фольклор. В эти годы им были записаны песни и сказания о В. И. Ленине, вошедшие в сборник «Ленин и творчество народов Востока» (1930). По утверждению Е. С. Калмановского, «все вошедшие туда произведения сочинил сам Соловьёв, создав таким образом фольклорно-литературную мистификацию». Об этой истории рассказывает в своих воспоминаниях и В. С. Виткович.
В 1930 году Соловьёв приезжает в Москву и поступает на литературно-сценарный факультет Института кинематографии, который оканчивает в 1932 году.
B 1932 году вышла в свет его первая книга-повесть «Кочевье» — о жизни кочевников в годы революции, а два года спустя — сборник повестей и рассказов «Поход „Победителя“».
В 1935 году по сценарию Л. Соловьёва был снят фильм «Конец полустанка» (Межрабпомфильм).
В 1939 году был опубликован роман «Возмутитель спокойствия» — первая книга наиболее значительного произведения Л. Соловьёва — «Повесть о Ходже Насреддине». В соавторстве с В. С. Витковичем им написаны сценарии кинофильмов «Насреддин в Бухаре» (1943) и «Похождения Насреддина» (1946).
Во время Великой Отечественной войны Соловьёв был военным корреспондентом газеты «Красный флот». Фронтовые рассказы и очерки писателя вошли в сборники «Большой экзамен» (1943) и «Севастопольский камень» (1944). По повести «Иван Никулин — русский матрос» (1943) им был создан киносценарий одноименного кинофильма (1944).
В сентябре 1946 года Соловьёва арестовали по обвинению в подготовке террористического акта. Вышел он на свободу в июне 1954 года, проведя восемь лет в лагерях. Повесть «Очарованный принц», вторая часть «Повести о Ходже Насреддине», была написана в лагере, на основе сценария к фильму «Похождения Насреддина», и закончена к концу 1950 года.
С 1954 года Соловьёв жил в Ленинграде. В «Лениздате» в 1956 году впервые появилась «Повесть о Ходже Насреддине» в двух книгах. Книга имела огромный успех.
Продолжая работать в области кинематографии, Соловьёв написал, в частности, сценарий кинофильма «Шинель» (1959) по одноименной повести Н. В. Гоголя.
В 1961 году впервые стали появляться в печати части нового произведения Л. Соловьёва «Книга юности» (отдельным изданием вышли в 1963 году под названием «Из „Книги юности“»).
Писатель скончался 9 апреля 1962 года в Ленинграде. Похоронен на Красненьком кладбище, дорожка «Нарвская».
Общее
Полное имя : [Pirat.ca]_Soloviov_Dilogiia.O.Hodzhe.Nasreddine\Книга 1. Возмутитель спокойствия\0001.mp3
Формат : MPEG Audio
Размер файла : 17,8 Мбайт
Продолжительность : 25 м.
Режим общего битрейта : Постоянный
Общий поток : 96,0 Кбит/сек
Альбом : Повесть о Ходже Насреддине. Книга 1
Трек : Возмутитель спокойствия
Трек/Положение : 01
Трек/Всего : 29
Группирование : Нигде не купишь
Исполнитель : Соловьев Леонид
Издатель : Клуб любителей аудиокниг
Жанр : Blues
Дата записи : 2013
Обложка : Yes
Тип обложки : Cover (front)
MIME-тип обложки : image/jpeg
Примечание : Телегина Татьяна
Аудио
Формат : MPEG Audio
Версия формата : Version 1
Профиль формата : Layer 3
Продолжительность : 25 м.
Вид битрейта : Постоянный
Битрейт : 96,0 Кбит/сек
Каналы : 1 канал
Частота : 44,1 КГц
Метод сжатия : С потерями
Размер потока : 17,8 Мбайт (100%)
Общее
Полное имя : [Pirat.ca]_Soloviov_Dilogiia.O.Hodzhe.Nasreddine\Книга 2. Очарованный принц\0001.mp3
Формат : MPEG Audio
Размер файла : 17,4 Мбайт
Продолжительность : 25 м.
Режим общего битрейта : Постоянный
Общий поток : 96,0 Кбит/сек
Альбом : Повесть о Ходже Насреддине. Книга 2
Трек : Очарованный принц
Трек/Положение : 01
Трек/Всего : 42
Группирование : ????? ?? ??????
Исполнитель : Соловьёв Леонид
Жанр : Other
Дата записи : 2013
Обложка : Yes
Тип обложки : Cover (front)
MIME-тип обложки : image/jpeg
Примечание : Воробьёва Ирина
Аудио
Формат : MPEG Audio
Версия формата : Version 1
Профиль формата : Layer 3
Продолжительность : 25 м.
Вид битрейта : Постоянный
Битрейт : 96,0 Кбит/сек
Каналы : 1 канал
Частота : 44,1 КГц
Метод сжатия : С потерями
Размер потока : 17,3 Мбайт (100%)
Download / Скачать

Хотите скачать бесплатно? Зарегистрируйтесь на сайте (ссылка на регистрацию). Pirat.ca - самый быстрый торрент трекер в рунете!

Как скачивать  ·   Что такое торрент  ·   Рейтинг и ограничения

Дядя Витя

59148

Пост 31-Янв-2013 17:11 (спустя 2 часа 1 минута)

[Q] 

Однажды один вельможа спросил у Ходжи Насреддина,
долго ли это люди будут все рождаться и помирать.
- "Пока, наконец, не наполнятся ад и рай" ... )
cs

_________________
?
[Профиль]  [ЛС] 

Алeкс

Корсар

94

Пост 14-Мар-2013 06:45 (спустя 1 месяц 13 дней)

[Q] 

спасибо за раздачу)
[Профиль]  [ЛС] 

FINN54

Флибустьер

Пост 22-Дек-2013 12:33 (спустя 9 месяцев 8 дней)

[Q] 

спасибо послушать всегда можно а вот качает еле еле Скорость как у черепахи
[Профиль]  [ЛС] 
Показать сообщения:    
Ответить на тему

Текущее время: Сегодня 03:47

Часовой пояс: GMT + 4



Вы не можете начинать темы
Вы не можете отвечать на сообщения
Вы не можете редактировать свои сообщения
Вы не можете удалять свои сообщения
Вы не можете голосовать в опросах
Вы не можете прикреплять файлы к сообщениям
Вы не можете скачивать файлы

▼ Вниз