Уважаемый Гость!
Вы можете поддержать проект и зарегистрироваться у наших партнеров - онлайн-стратегия MyLands. При регистрации в игре Вы получите код, который сможете активировать после регистрации на pirat.ca и получить 1000 дублонов.

Ваш код:
96655d23e625a911058ec0fcd7263f5bff78a048
 
     

Михаил Успенский - Приключения Жихаря (трилогия) [А. Зарецкий, Ю. Заборовский, 2003-2006 г., 30:12:47]

Ответить на тему
 
Автор
Сообщение

Пост 02-Май-2012 17:34

[Q] 

Shlfck

Приключения Жихаря
Год выпуска: 2003-2006
Автор: Михаил Успенский
Время звучания: 30:12:47
Исполнитель: А. Зарецкий, Ю. Заборовский
Жанр: Юмористическая фантастика
Издательство: "ЭКСМО-СИДИКОМ"
Серия: Приключения Жихаря
Тип: аудиокнига
Аудио кодек: MP3
Битрейт аудио: 96 - 160 Kbps
Не перевелись еще богатыри на земле русской! это повествование полностью отражает смысл этой поговорки. Увлекательные приключения богатыря Жихаря, удивительные события, происходящие с героями книги. Найдут ли они и разомкнут ли Проклятый круг времени? 128 kbpsВремя звучания - 11:52:55издательсьво/год: СиДиКом/2005 Исполнитель: Андрей Зарецкий
Общее
Полное имя : U:\AudioBook\Приключения Жихаря\1_Там где нас нет\01_01_01.mp3
Формат : MPEG Audio
Размер файла : 6,75 Мбайт
Продолжительность : 7 м. 22 с.
Режим общего битрейта : Постоянный
Общий поток : 128 Кбит/сек
Аудио
Формат : MPEG Audio
Версия формата : Version 1
Профиль формата : Layer 3
Режим : Joint stereo
Расширение режима : MS Stereo
Продолжительность : 7 м. 23 с.
Вид битрейта : Постоянный
Битрейт : 128 Кбит/сек
Каналы : 2 канала
Частота : 44,1 КГц
Метод сжатия : С потерями
Размер потока : 6,75 Мбайт (100%)
Продолжение приключений богатыря Жихаря – героя популярного романа «Там, где нас нет». Все богатство пропито. Пришло время возвращаться в родное Многоборье в поисках новых приключений, в лучах грозной славы победителя, разорителя, полководца. Как его встретят дома? 160 kbpsВремя звучания - 09:09:56издательсьво/год: СиДиКом/2003 Исполнитель: Юрий Заборовский
Общее
Полное имя : U:\AudioBook\Приключения Жихаря\2_Время оно\01_01_01.mp3
Формат : MPEG Audio
Размер файла : 8,96 Мбайт
Продолжительность : 7 м. 49 с.
Режим общего битрейта : Постоянный
Общий поток : 160 Кбит/сек
Аудио
Формат : MPEG Audio
Версия формата : Version 1
Профиль формата : Layer 3
Режим : Joint stereo
Продолжительность : 7 м. 50 с.
Вид битрейта : Постоянный
Битрейт : 160 Кбит/сек
Каналы : 2 канала
Частота : 44,1 КГц
Метод сжатия : С потерями
Размер потока : 8,96 Мбайт (100%)
Кого за смертью посылать? Разумеется, Жихаря – бесстрашного витязя и героя, князя Многоборского! Обидевшись на людей – "Злые вы! Уйду я от вас!" – Смерть покинула Многоборье. Казалось бы, живи да радуйся – но нет, оказывается, местному населению без Смерти никакого житья, сплошные недоразумения. Жихарю снова приходится отправиться в путь, чтобы вернуть в родные места капризную старуху с косой... 96 kbpsВремя звучания - 09:09:56издательсьво/год: СиДиКом/2006 Исполнитель: Андрей Зарецкий
Общее
Полное имя : U:\AudioBook\Приключения Жихаря\3_Кого за смертью посылать\01_01_01.mp3
Формат : MPEG Audio
Размер файла : 5,62 Мбайт
Продолжительность : 8 м. 10 с.
Режим общего битрейта : Постоянный
Общий поток : 96,0 Кбит/сек
Библиотека кодирования : LAME3.93
Аудио
Формат : MPEG Audio
Версия формата : Version 1
Профиль формата : Layer 3
Продолжительность : 8 м. 10 с.
Вид битрейта : Постоянный
Битрейт : 96,0 Кбит/сек
Каналы : 2 канала
Частота : 32,0 КГц
Метод сжатия : С потерями
Размер потока : 5,62 Мбайт (100%)
Библиотека кодирования : LAME3.93
Михаил Успенский родился в Барнауле. Окончил Иркутский университет, работал в многотиражных газетах и на телевидении. В литературе дебютировал в 1967 году, опубликовал подборку стихотворений в местной газете. Дебют в фантастике — рассказ "Соловьи поют, заливаются..." (1981). Много лет писал монологи, с которыми выступали самые известные "артисты разговорного жанра", в том числе Геннадий Хазанов, с которым Успенский познакомился и начал сотрудничать в 1984 г. Как писатель приобрел популярность с выходом романа "Чугунный всадник" (за который получил премию "Бронзовая улитка-92"). Затем были романы "Дорогой товарищ король" и знаменитый "Там, где нас нет" (впоследствии выросший в трилогию). Автор книг "Устав соколиной охоты", "Там, где нас нет", "Время оно", "Кого за смертью посылать". В соавторстве с Андреем Лазарчуком написал роман "Посмотри в глаза чудовищ" и "Гиперборейская чума". Переводил на русский язык произведения Роберта Говарда. Лауреат множества литературных премий. Живет в Красноярске.
Download / Скачать

Хотите скачать бесплатно? Зарегистрируйтесь на сайте (ссылка на регистрацию). Pirat.ca - самый быстрый торрент трекер в рунете!

Как скачивать  ·   Что такое торрент  ·   Рейтинг и ограничения

abc7

Гроза морей

472

Пост 07-Окт-2012 13:44 (спустя 5 месяцев 4 дня)

[Q] 

Маладца!!!!!
[Профиль]  [ЛС] 

dronich74

Флибустьер

Пост 31-Дек-2014 19:44 (спустя 2 года 2 месяца)

[Q] 

Класс , Люблю книги про Жихаря Автору респект!!! Ку три раза
[Профиль]  [ЛС] 
Показать сообщения:    
Ответить на тему

Текущее время: Сегодня 15:30

Часовой пояс: GMT + 4



Вы не можете начинать темы
Вы не можете отвечать на сообщения
Вы не можете редактировать свои сообщения
Вы не можете удалять свои сообщения
Вы не можете голосовать в опросах
Вы не можете прикреплять файлы к сообщениям
Вы не можете скачивать файлы

▼ Вниз