Уважаемый Гость!
Вы можете поддержать проект и зарегистрироваться у наших партнеров - онлайн-стратегия MyLands. При регистрации в игре Вы получите код, который сможете активировать после регистрации на pirat.ca и получить 1000 дублонов.

Ваш код:
6ce94c87b14c77f4c9d9415fb160accb369c92d9
 
     

Увеличение члена собственоручно - Курс на русском / Penis Enlargement Manual in Russian (Учебное пособие) [2004, exe+video+doc]

Ответить на тему
 
Автор
Сообщение

Пост 16-Янв-2012 20:52

[Q] 

a_barat

Гроза морей

Увеличение члена собственоручно - Курс на русском / Penis Enlargement Manual in Russian
Внимание: раздача изменена, добавлены видеофайлы и бонусы. Торрент перезалит!
Год выпуска: 2004
Жанр: учебное пособие
Сайт издателя: www.enlargepenisguide.ru
Продолжительность видеоуроков: 00:08:32 (00:00:56 + 00:01:18 + 00:00:46 + 00:00:42 + 00:01:15 + 00:01:20 + 00:01:10 + 00:01:05)
Продолжительность воздействия на организм: пожизненно:)
В ролях: Мужик, удлиняющий член собственными руками.
Описание (с ихнего сайта):
- УВЕЛИЧЕНИЕ ПЕНИСА в длину и в окружности! (ага, по экватору:))
- Придание члену любой, нужной тебе формы! (вот тут на слове "тебе" мы с пацанами ржали от души cr :)))
- Исправление излишней кривизны члена! (излишней!! cr )
- Повышение сексуальной выносливости! (вынесешь всё!:))
- Многократное усиление полового влечения! (к кому?!?!)
- Стальная эрекция в любом возрасте! (Островский, блин, как закалялась сталь:)))
- Абсолютный контроль над эякуляцией! (чьей?!?! cr )
- Очень яркий и продолжительный оргазм! (яркий аж глаза режет:)))
- Способность к множественному оргазму! (блондинко?!?!)
- Быстрое восстановление для следующих половых актов! (станешь мегапихарем!!:))
- Секретные техники секса! (агент 007, блин!:)))
Доп. информация: ПРЕДЛАГАЕТСЯ ЧЕТЫРЕ КУРСА УПРАЖНЕНИЙ:
dm Для увеличения длины пениса;
dm Для увеличения окружности пениса;
dm Для увеличения головки пениса;
dm Для общего увеличения пениса, т.е. увеличения его длины, окружности и головки.
Тут была раздача из случайно попавших мне в руки руководств по увеличению. Типа запостил что имел. Но меня так достали всякие ботаны, что я нашел таки и видеофайлов и дополнительных бонусов - Техника возбуждающего поцелуя, Техники фрикций и ССС. Согласитесь, неплохо...







Полное имя : \Видеоролики\0_Согревание.wmv
Формат : Windows Media
Размер файла : 330 KiB
Продолжительность : 56s 433ms
Режим общего битрейта : Constant
Общий поток : 47.9 Kbps
Максимальный общий битрейт : 50.2 Kbps
Дата кодирования : UTC 2004-12-14 06:02:23.671
Video
Идентификатор : 2
Формат : WMV2
Идентификатор кодека : WMV2
Идентификатор кодека/Информация : Windows Media Video 8
Описание кодека : Windows Media Video V8
Вид битрейта : Constant
Битрейт : 33.0 Kbps
Ширина : 160 pixels
Высота : 120 pixels
Соотношение сторон : 4:3
Режим частоты кадров : Variable
Номинальная частота кадров : 15.000 fps
Битовая глубина : 8 bits
Язык : English (US)
Audio
Идентификатор : 1
Формат : WMA
Версия формата : Version 2
Идентификатор кодека : 161
Идентификатор кодека/Информация : Windows Media Audio
Описание кодека : Windows Media Audio 9.1 - 10 kbps, 16 kHz, mono 1-pass CBR
Продолжительность : 56s 433ms
Вид битрейта : Constant
Битрейт : 10 000 bps
Каналы : 1 channel
Частота : 16.0 KHz
Битовая глубина : 16 bits
Размер потока : 68.9 KiB (21%)
Язык : English (US)
NumberOfFrames : 176
\Видеоролики\1_Мощное Растягивание.wmv
Формат : Windows Media
Размер файла : 439 KiB
Продолжительность : 1mn 18s
Режим общего битрейта : Constant
Общий поток : 45.9 Kbps
Максимальный общий битрейт : 50.2 Kbps
Дата кодирования : UTC 2004-12-14 05:25:51.453
Video
Идентификатор : 2
Формат : WMV2
Идентификатор кодека : WMV2
Идентификатор кодека/Информация : Windows Media Video 8
Описание кодека : Windows Media Video V8
Вид битрейта : Constant
Битрейт : 33.0 Kbps
Ширина : 160 pixels
Высота : 120 pixels
Соотношение сторон : 4:3
Режим частоты кадров : Variable
Номинальная частота кадров : 15.000 fps
Битовая глубина : 8 bits
Язык : English (US)
Audio
Идентификатор : 1
Формат : WMA
Версия формата : Version 2
Идентификатор кодека : 161
Идентификатор кодека/Информация : Windows Media Audio
Описание кодека : Windows Media Audio 9.1 - 10 kbps, 16 kHz, mono 1-pass CBR
Продолжительность : 1mn 18s
Вид битрейта : Constant
Битрейт : 10 000 bps
Каналы : 1 channel
Частота : 16.0 KHz
Битовая глубина : 16 bits
Размер потока : 95.7 KiB (22%)
Язык : English (US)
NumberOfFrames : 244
Penis_Enlargement_exe_RU\Видеоролики\2_Круговое Растягивание.wmv
Формат : Windows Media
Размер файла : 270 Кбайт
Продолжительность : 46 с.
Режим общего битрейта : Постоянный
Общий поток : 47,8 Кбит/сек
Максимальный общий битрейт : 50,2 Кбит/сек
Дата кодирования : UTC 2004-12-14 05:02:33.310
Видео
Идентификатор : 2
Формат : WMV2
Идентификатор кодека : WMV2
Идентификатор кодека/Информация : Windows Media Video 8
Описание кодека : Windows Media Video V8
Вид битрейта : Постоянный
Битрейт : 33,0 Кбит/сек
Ширина : 160 пикселей
Высота : 120 пикселей
Соотношение сторон : 4:3
Режим частоты кадров : Переменный
Номинальная частота кадров : 15,000 кадров/сек
Битовая глубина : 8 бит
Язык : English (US)
Аудио
Идентификатор : 1
Формат : WMA
Версия формата : Version 2
Идентификатор кодека : 161
Идентификатор кодека/Информация : Windows Media Audio
Описание кодека : Windows Media Audio 9.1 - 10 kbps, 16 kHz, mono 1-pass CBR
Продолжительность : 46 с.
Вид битрейта : Постоянный
Битрейт : 10000 бит/сек
Каналы : 1 канал
Частота : 16,0 КГц
Битовая глубина : 16 бит
Размер потока : 56,4 Кбайт (21%)
Язык : English (US)
NumberOfFrames : 144
Penis_Enlargement_exe_RU\Видеоролики\3_Растягивание сидя.wmv
Формат : Windows Media
Размер файла : 237 Кбайт
Продолжительность : 42 с.
Режим общего битрейта : Постоянный
Общий поток : 45,5 Кбит/сек
Максимальный общий битрейт : 50,2 Кбит/сек
Дата кодирования : UTC 2004-12-14 05:34:30.150
Видео
Идентификатор : 2
Формат : WMV2
Идентификатор кодека : WMV2
Идентификатор кодека/Информация : Windows Media Video 8
Описание кодека : Windows Media Video V8
Вид битрейта : Постоянный
Битрейт : 33,0 Кбит/сек
Ширина : 160 пикселей
Высота : 120 пикселей
Соотношение сторон : 4:3
Режим частоты кадров : Переменный
Номинальная частота кадров : 15,000 кадров/сек
Битовая глубина : 8 бит
Язык : English (US)
Аудио
Идентификатор : 1
Формат : WMA
Версия формата : Version 2
Идентификатор кодека : 161
Идентификатор кодека/Информация : Windows Media Audio
Описание кодека : Windows Media Audio 9.1 - 10 kbps, 16 kHz, mono 1-pass CBR
Продолжительность : 42 с.
Вид битрейта : Постоянный
Битрейт : 10000 бит/сек
Каналы : 1 канал
Частота : 16,0 КГц
Битовая глубина : 16 бит
Размер потока : 52,0 Кбайт (22%)
Язык : English (US)
NumberOfFrames : 132
Penis_Enlargement_exe_RU\Видеоролики\4_Классический Джелк.wmv
Формат : Windows Media
Размер файла : 435 Кбайт
Продолжительность : 1 м. 15 с.
Режим общего битрейта : Постоянный
Общий поток : 47,3 Кбит/сек
Максимальный общий битрейт : 50,2 Кбит/сек
Дата кодирования : UTC 2004-12-14 05:44:18.656
Видео
Идентификатор : 2
Формат : WMV2
Идентификатор кодека : WMV2
Идентификатор кодека/Информация : Windows Media Video 8
Описание кодека : Windows Media Video V8
Вид битрейта : Постоянный
Битрейт : 33,0 Кбит/сек
Ширина : 160 пикселей
Высота : 120 пикселей
Соотношение сторон : 4:3
Режим частоты кадров : Переменный
Номинальная частота кадров : 15,000 кадров/сек
Битовая глубина : 8 бит
Язык : English (US)
Аудио
Идентификатор : 1
Формат : WMA
Версия формата : Version 2
Идентификатор кодека : 161
Идентификатор кодека/Информация : Windows Media Audio
Описание кодека : Windows Media Audio 9.1 - 10 kbps, 16 kHz, mono 1-pass CBR
Продолжительность : 1 м. 15 с.
Вид битрейта : Постоянный
Битрейт : 10000 бит/сек
Каналы : 1 канал
Частота : 16,0 КГц
Битовая глубина : 16 бит
Размер потока : 92,0 Кбайт (21%)
Язык : English (US)
NumberOfFrames : 235
Penis_Enlargement_exe_RU\Видеоролики\5_Джелк и Удержание.wmv
Формат : Windows Media
Размер файла : 437 Кбайт
Продолжительность : 1 м. 20 с.
Режим общего битрейта : Постоянный
Общий поток : 44,5 Кбит/сек
Максимальный общий битрейт : 50,2 Кбит/сек
Дата кодирования : UTC 2004-12-14 04:58:28.453
Видео
Идентификатор : 2
Формат : WMV2
Идентификатор кодека : WMV2
Идентификатор кодека/Информация : Windows Media Video 8
Описание кодека : Windows Media Video V8
Вид битрейта : Постоянный
Битрейт : 33,0 Кбит/сек
Ширина : 160 пикселей
Высота : 120 пикселей
Соотношение сторон : 4:3
Режим частоты кадров : Переменный
Номинальная частота кадров : 15,000 кадров/сек
Битовая глубина : 8 бит
Язык : English (US)
Аудио
Идентификатор : 1
Формат : WMA
Версия формата : Version 2
Идентификатор кодека : 161
Идентификатор кодека/Информация : Windows Media Audio
Описание кодека : Windows Media Audio 9.1 - 10 kbps, 16 kHz, mono 1-pass CBR
Продолжительность : 1 м. 20 с.
Вид битрейта : Постоянный
Битрейт : 10000 бит/сек
Каналы : 1 канал
Частота : 16,0 КГц
Битовая глубина : 16 бит
Размер потока : 98,2 Кбайт (22%)
Язык : English (US)
NumberOfFrames : 251
Penis_Enlargement_exe_RU\Видеоролики\6_Джелк одной рукой.wmv
Формат : Windows Media
Размер файла : 405 Кбайт
Продолжительность : 1 м. 10 с.
Режим общего битрейта : Постоянный
Общий поток : 46,8 Кбит/сек
Максимальный общий битрейт : 50,2 Кбит/сек
Дата кодирования : UTC 2004-12-14 05:14:12.218
Видео
Идентификатор : 2
Формат : WMV2
Идентификатор кодека : WMV2
Идентификатор кодека/Информация : Windows Media Video 8
Описание кодека : Windows Media Video V8
Вид битрейта : Постоянный
Битрейт : 33,0 Кбит/сек
Ширина : 160 пикселей
Высота : 120 пикселей
Соотношение сторон : 4:3
Режим частоты кадров : Переменный
Номинальная частота кадров : 15,000 кадров/сек
Битовая глубина : 8 бит
Язык : English (US)
Аудио
Идентификатор : 1
Формат : WMA
Версия формата : Version 2
Идентификатор кодека : 161
Идентификатор кодека/Информация : Windows Media Audio
Описание кодека : Windows Media Audio 9.1 - 10 kbps, 16 kHz, mono 1-pass CBR
Продолжительность : 1 м. 10 с.
Вид битрейта : Постоянный
Битрейт : 10000 бит/сек
Каналы : 1 канал
Частота : 16,0 КГц
Битовая глубина : 16 бит
Размер потока : 86,5 Кбайт (21%)
Язык : English (US)
NumberOfFrames : 221
Penis_Enlargement_exe_RU\Видеоролики\7_V-Растягивание.wmv
Формат : Windows Media
Размер файла : 309 Кбайт
Продолжительность : 1 м. 5 с.
Режим общего битрейта : Постоянный
Общий поток : 38,9 Кбит/сек
Максимальный общий битрейт : 50,2 Кбит/сек
Дата кодирования : UTC 2004-12-14 05:30:24.406
Видео
Идентификатор : 2
Формат : WMV2
Идентификатор кодека : WMV2
Идентификатор кодека/Информация : Windows Media Video 8
Описание кодека : Windows Media Video V8
Вид битрейта : Постоянный
Битрейт : 33,0 Кбит/сек
Ширина : 160 пикселей
Высота : 120 пикселей
Соотношение сторон : 4:3
Режим частоты кадров : Переменный
Номинальная частота кадров : 15,000 кадров/сек
Битовая глубина : 8 бит
Язык : English (US)
Аудио
Идентификатор : 1
Формат : WMA
Версия формата : Version 2
Идентификатор кодека : 161
Идентификатор кодека/Информация : Windows Media Audio
Описание кодека : Windows Media Audio 9.1 - 10 kbps, 16 kHz, mono 1-pass CBR
Продолжительность : 1 м. 5 с.
Вид битрейта : Постоянный
Битрейт : 10000 бит/сек
Каналы : 1 канал
Частота : 16,0 КГц
Битовая глубина : 16 бит
Размер потока : 79,5 Кбайт (26%)
Язык : English (US)
NumberOfFrames : 203
НО
есть DVD на английском языке тут, в моем посте в категории "Список форумов » Видеоуроки (общий раздел) » Уход за собой", где все эти штучки гораздо красочнее и подробнее:
Matters of Size - The Ultimate Guide to Penis Enlargement Exercise Program / Упражнения по натуральному увеличению пениса - Размер важен!

Это Первое в мире полное видео-пособие по увеличению полового члена. Самый сильнодействующий DVD с натуральной техникой по увеличению пениса. Гарантированно быстрое увеличение на несколько сантиметров! 5 стадийный интерактивный обучающий курс. установленный порядок упражнений.
Только не перестарайтесь!!! Вот тут в категории Документальные фильмы и передачи » Медицина и здоровье есть документальный фильм о бедолагах с гиперписьками, Самый большой в мире член / The World's Biggest Penis называется.

Хотя глупые могут не благодарить - они ведь сразу подумают что нибудь типа "если тыкну на спасибо, все решат, что у меня писька маленькая". От ханжей тоже благодарности априори не жду.
Download / Скачать

Хотите скачать бесплатно? Зарегистрируйтесь на сайте (ссылка на регистрацию). Pirat.ca - самый быстрый торрент трекер в рунете!

Как скачивать  ·   Что такое торрент  ·   Рейтинг и ограничения



Последний раз редактировалось: a_barat (2012-01-24 09:53), всего редактировалось 27 раз(а)

bruder

Флибустьер

Пост 28-Янв-2012 23:47 (спустя 12 дней)

[Q] 

Браво! Великолепная зачистка! Целых 2 страницы постов отправлены в топку. Теперь кроме "спасибо" писать ничего не будем, а это, согласитесь, скучно.

_________________
[Профиль]  [ЛС] 

a_barat ®

Гроза морей

3287

Пост 29-Янв-2012 10:41 (спустя 10 часов)

[Q] 

bruder, 3 страницы - Вы не успели прочитать продолжения :))

_________________
This message represents an official view of the voices in my head af
[Профиль]  [ЛС] 

Дядя Витя

59148

Пост 27-Мар-2012 20:11 (спустя 1 месяц 29 дней)

[Q] 


_________________
?
[Профиль]  [ЛС] 

Region65

Шкипер

3

Пост 30-Сен-2013 15:43 (спустя 1 год 6 месяцев)

[Q] 

а есть анти-методика ??? попробовал пару раз эту методику в прошлом году и забросил НО ЧЛЕН ПРОДОЛЖАЕТ РАСТИ!!!! приходится теперь таскать с собою в штанах анаконду в 2,5 метра!!!!! как быть? ни чего не помогает..боюсь придется идти к врачу а там только один выход "delete"!)))

_________________
Если хочется работать - ляг поспи и все пройдет!)))
[Профиль]  [ЛС] 

Darvis

Морской Волк

Пост 30-Сен-2013 22:35 (спустя 6 часов)

[Q] 

429638а есть анти-методика ??? попробовал пару раз эту методику в прошлом году и забросил НО ЧЛЕН ПРОДОЛЖАЕТ РАСТИ!!!! приходится теперь таскать с собою в штанах анаконду в 2,5 метра!!!!! как быть? ни чего не помогает..боюсь придется идти к врачу а там только один выход "delete"!)))
спасибо, поржал)))

_________________
[Профиль]  [ЛС] 

Эвакуация

24787

Пост 30-Сен-2013 23:03 (спустя 28 минут)

[Q] 

Region65,
часть инструкций здесь - Размер не имеет значения... Пак из 36 клипов [ MоnstersОfCock.соm \ ВаngBros.com, LethalHardcore.com, all sex, oral, big cocks, facial, SATRip, HD, 2007-2012 ]
bx
[Профиль]  [ЛС] 

kolya11372

Морской Волк

Пост 09-Апр-2014 10:34 (спустя 6 месяцев 8 дней)

[Q] 

посмотрим за что люди еще и деньги платят
[Профиль]  [ЛС] 

zzremzz

Пост 12-Янв-2015 14:06 (спустя 9 месяцев 3 дня)

[Q] 

Прошу скорости, встаньте на раздачу
[Профиль]  [ЛС] 

SHERHAN

688

Пост 12-Янв-2015 14:45 (спустя 38 минут)

[Q] 

ёп оно еще и растягивается !!!!

_________________
Рыжий хищник, полосатый,
В меру наглый и усатый,
Днём и ночью он не спит,
Зорко в монитор глядит!
[Профиль]  [ЛС] 

sobrat

Шкипер

Пост 03-Фев-2016 13:36 (спустя 1 год)

[Q] 

ага, особенно если зажало в дверях троллейбуса или метро
[Профиль]  [ЛС] 
Показать сообщения:    
Ответить на тему

Текущее время: Сегодня 01:03

Часовой пояс: GMT + 4



Вы не можете начинать темы
Вы не можете отвечать на сообщения
Вы не можете редактировать свои сообщения
Вы не можете удалять свои сообщения
Вы не можете голосовать в опросах
Вы не можете прикреплять файлы к сообщениям
Вы не можете скачивать файлы

▼ Вниз