Уважаемый Гость!
Вы можете поддержать проект и зарегистрироваться у наших партнеров - онлайн-стратегия MyLands. При регистрации в игре Вы получите код, который сможете активировать после регистрации на pirat.ca и получить 1000 дублонов.

Ваш код:
78dceca3e7b2bf1172f0fc2a20d0a5a22ce9d460
 
     

Звёздные собаки: Белка и Стрелка (Святослав Ушаков, Инна Евланникова) [2010 г.,3D, комедия, приключения, мультфильм, HDRip] [Anaglyph / Анаглиф]

Ответить на тему
 
Автор
Сообщение

Пост 04-Дек-2011 17:56

[Q] 

Андря

Звёздные собаки: Белка и Стрелка
Год выпуска: 2010
Страна: Россия, Centre of National Film
Жанр: комедия, приключения, мультфильм
Продолжительность: 01:28:20
Режиссер: Святослав Ушаков, Инна Евланникова
В ролях: Анна Большова, Елена Яковлева, Евгений Миронов, Сергей Гармаш, Александр Баширов, Руслан Кулешов, Сергей Юшкевич, Николай Сморчков, Всеволод Кузнецов, Жанна Никонова
Описание: Привычный ход вещей нарушен! Цирковая собака Белка больше не выйдет на манеж покорять сердца зрителей, а дворняжка Стрелка не будет ночевать в подворотнях и искать себе пропитание. Теперь они не просто собаки, а члены отряда космонавтов. И лишь самые достойные, самые выносливые отправятся покорять космическое пространство.
Для просмотра 3D версии требуются анаглифные очки!
Качество: HDRip [исх Blu-ray]
Формат: AVI
Видео кодек: XviD
Аудио кодек: AC3
Видео: 1822 kb/s, 720x400, 23.976 fps, 24 bits
Аудио: AC3, 384 kb/s (6 ch), 48.0 KHz
Общее
Полное имя : Strelka.2010.HDRip[pirat.ca].avi
Формат : AVI
Формат/Информация : Audio Video Interleave
Размер файла : 1,37 Гбайт
Продолжительность : 1 ч. 28 м.
Общий поток : 2215 Кбит/сек
Программа кодирования : VirtualDubMod 1.5.10.2 (build 2540/release)
Библиотека кодирования : VirtualDubMod build 2540/release
Видео
Идентификатор : 0
Формат : MPEG-4 Visual
Профиль формата : Advanced [email protected]
Параметр BVOP формата : 1
Параметр QPel формата : Нет
Параметр GMC формата : Без точки перехода
Параметр матрицы формата : Default (H.263)
Идентификатор кодека : XVID
Идентификатор кодека/Подсказка : XviD
Продолжительность : 1 ч. 28 м.
Битрейт : 1822 Кбит/сек
Ширина : 720 пикселей
Высота : 400 пикселей
Соотношение сторон : 16:9
Частота кадров : 23,976 кадра/сек
Цветовое пространство : YUV
Субдискретизация насыщенности : 4:2:0
Битовая глубина : 8 бит
Тип развёртки : Прогрессивная
Метод сжатия : С потерями
Бит/(Пиксели*Кадры) : 0.264
Размер потока : 1,12 Гбайт (82%)
Библиотека кодирования : XviD 1.2.1 (UTC 2008-12-04)
Аудио
Идентификатор : 1
Формат : AC-3
Формат/Информация : Audio Coding 3
Расширение режима : CM (complete main)
Идентификатор кодека : 2000
Продолжительность : 1 ч. 28 м.
Вид битрейта : Постоянный
Битрейт : 384 Кбит/сек
Каналы : 2 канала
Расположение каналов : Front: L R
Частота : 48,0 КГц
Битовая глубина : 16 бит
Метод сжатия : С потерями
Размер потока : 243 Мбайт (17%)
Выравнивание : Разделение по промежуткам
Продолжительность промежутка : 42 мс. (1,00 видеокадр)
Время предзагрузки промежутка : 500 мс.
Download / Скачать

Хотите скачать бесплатно? Зарегистрируйтесь на сайте (ссылка на регистрацию). Pirat.ca - самый быстрый торрент трекер в рунете!

Как скачивать  ·   Что такое торрент  ·   Рейтинг и ограничения



Последний раз редактировалось: Андря (2012-01-02 20:12), всего редактировалось 1 раз

Пост 04-Дек-2011 18:16 (спустя 19 минут)

Топик был перенесен из форума Мультипликация в форум Отечественные полнометражные мультфильмы

zyyx
 

Александр 198001

Шкипер

Пост 24-Янв-2012 19:27 (спустя 1 месяц 20 дней)

[Q] 

спасибо
[Профиль]  [ЛС] 

Пост 23-Ноя-2012 16:54 (спустя 9 месяцев 29 дней)

Топик был перенесен из форума Отечественные полнометражные мультфильмы в форум 3D Мультфильмы

erchine
 

FruTT

Корсар

2

Пост 25-Ноя-2012 21:18 (спустя 10 месяцев 1 день)

[Q] 

как вам? качать стоит?

_________________
Подпись отключена за нарушение правил форума
[Профиль]  [ЛС] 

Alexe10

Гроза морей

36

Пост 23-Окт-2014 07:30 (спустя 1 год 10 месяцев)

[Q] 

Автору респект!!!
[Профиль]  [ЛС] 
Показать сообщения:    
Ответить на тему

Текущее время: Сегодня 01:07

Часовой пояс: GMT + 4



Вы не можете начинать темы
Вы не можете отвечать на сообщения
Вы не можете редактировать свои сообщения
Вы не можете удалять свои сообщения
Вы не можете голосовать в опросах
Вы не можете прикреплять файлы к сообщениям
Вы не можете скачивать файлы

▼ Вниз