ML
     
  Уважаемый Гость!
Вы можете поддержать проект и зарегистрироваться у наших партнеров - онлайн-стратегия MyLands. При регистрации в игре Вы получите код, который сможете активировать после регистрации на pirat.ca и получить 1000 дублонов.

Ваш код:
0ea1bf889af42fca5f67d0a391efb3400850ad7c
 
     

Небесный суд ( 1-4 серия из 4) (Алена Званцова) [2012 г., Драма, DVDRip] [лицензия]

Ответить на тему
 
Автор
Сообщение

Пост 19-Июн-2012 16:18

[Q] 

Znoi

Флибустьер

-Небесный суд (1-4 серия из 4)
--Год выпуска: 2012
Российская премьера: 31 мая 2012
Производство: Россия, Централ Партнершип
Жанр: Драма
Продолжительность серии: 4 х ~ 00:46:00--Перевод: Не требуется
Субтитры: отсутствуют--Режиссер: Алена Званцова--В ролях
Константин Хабенский, Михаил Пореченков, Ингеборга Дапкунайте, Анна Михалкова, Евгения Добровольская, Никита Зверев, Дмитрий Марьянов, Марина Дуксова, Юрий Ицков, Юрий Ермаков, Яна Сексте, Сергей Бызгу, Сергей Барковский, Артур Ваха, Олег Мазуров, Борис Хвошнянский, Игорь Гаспарян, Альберт Афонин, Даниэла Стоянович, Дмитрий Ермакович, Юрий Орлов, Виталий Коваленко, Ксения Каталымова, Леонид Алимов, Константин Воробьёв--Описание
Адвокатская драма с неожиданным ракурсом прочтения. Адвокаты Андрей и Вениамин – друзья, которых объединяет многое, но работа то и дело ставит их на разные стороны баррикад. Особенность их положения в том, что судебные процессы, в которых они участвуют, происходят не в земной жизни, а в загробной. Они – участники Небесного Суда, решающего, куда направить душу человека после смерти, в Рай или в Ад. В одно из дел неожиданно вмешиваются личные интересы Андрея: на скамью подсудимых попадает человек, сделавший предложение его вдове.-- --Источник/Качество: DVDRip
Формат: AVI
Видео кодек: XviD
Аудио кодек: AC3
Видео: 720x400 (1.80:1), 25 fps, XviD build 50 ~1550 kbps avg, 0.22 bit/pixel
Аудио: 48 kHz, AC3 Dolby Digital, 3/2 (L,C,R,l,r) + LFE ch, ~448 kbps
Общее
Полное имя : Nebesnyi.Sud.(1-4serii.iz.4).2012.XviD.DVDRip.[pirat.ca]\Nebesnyi.Sud.(1.seriya.iz.4).2012.XviD.DVDRip.avi
Формат : AVI
Формат/Информация : Audio Video Interleave
Размер файла : 700 Мбайт
Продолжительность : 48 м.
Общий поток : 2019 Кбит/сек
Название фильма : Nebesnyi.Sud.1.seriya.iz.4.2012.O.DVDRip
Программа кодирования : VirtualDubMod 1.5.10.3 | www.virtualdub-fr.org || (build 2550/release)
Видео
Идентификатор : 0
Формат : MPEG-4 Visual
Профиль формата : Advanced [email protected]
Параметр BVOP формата : 2
Параметр QPel формата : Нет
Параметр GMC формата : Без точки перехода
Параметр матрицы формата : Выборочная
Идентификатор кодека : XVID
Идентификатор кодека/Подсказка : XviD
Продолжительность : 48 м.
Битрейт : 1561 Кбит/сек
Ширина : 720 пикселей
Высота : 400 пикселей
Соотношение сторон : 16:9
Частота кадров : 25,000 кадров/сек
Цветовое пространство : YUV
Субдискретизация насыщенности : 4:2:0
Битовая глубина : 8 бит
Тип развёртки : Прогрессивная
Метод сжатия : С потерями
Бит/(Пиксели*Кадры) : 0.217
Размер потока : 541 Мбайт (77%)
Библиотека кодирования : XviD 1.2.1 (UTC 2008-12-04)
Аудио
Идентификатор : 1
Формат : AC-3
Формат/Информация : Audio Coding 3
Расширение режима : CM (complete main)
Идентификатор кодека : 2000
Продолжительность : 48 м.
Вид битрейта : Постоянный
Битрейт : 448 Кбит/сек
Каналы : 6 каналов
Расположение каналов : Front: L C R, Side: L R, LFE
Частота : 48,0 КГц
Битовая глубина : 16 бит
Метод сжатия : С потерями
Размер потока : 155 Мбайт (22%)
Выравнивание : Разделение по промежуткам
Продолжительность промежутка : 40 мс. (1,00 видеокадр)
Время предзагрузки промежутка : 500 мс.
Download / Скачать

Хотите скачать бесплатно? Зарегистрируйтесь на сайте (ссылка на регистрацию). Pirat.ca - самый быстрый торрент трекер в рунете!

Как скачивать  ·   Что такое торрент  ·   Рейтинг и ограничения

nadabibak

Гроза морей

Пост 19-Июн-2012 17:22 (спустя 1 час 4 минуты)

[Q] 

Мне не понравился.
[Профиль]  [ЛС] 

Пост 22-Июн-2012 10:58 (спустя 2 дня 17 часов)

Топик был перенесен из форума Сериалы в форум Отечественные сериалы

Андря
 

dobermanspb

Лоцман

Пост 01-Сен-2012 01:05 (спустя 2 месяца 12 дней)

[Q] 

Великолепный фильм. Всячески рекомендую к просмотру, за исключением глубоко верующих без чувства юмора.
[Профиль]  [ЛС] 

Alex31107

Штурман

Пост 10-Окт-2012 22:32 (спустя 1 месяц 9 дней)

[Q] 

Посмотрим. Только сраздачей не тяните.
[Профиль]  [ЛС] 

sdds

Лоцман

Пост 21-Ноя-2012 13:47 (спустя 1 месяц 10 дней)

[Q] 

[Профиль]  [ЛС] 

reliz82

Шкипер

49

Пост 31-Дек-2012 21:51 (спустя 1 месяц 10 дней)

[Q] 

Фильм замечательный. Смысл есть. Задуматься просто нужно. Игра актёров мне понравилась. Сюжет замечательный. Жаль, что продолжения нет
[Профиль]  [ЛС] 

Valentin2010

Корсар

Пост 09-Янв-2013 22:27 (спустя 9 дней)

[Q] 

Фильм СУПЕР!!!!! Очень понравился!

_________________
"Никогда не мстите подлым людям. Просто станьте счастливыми. И они этого не переживут... " – Юрий Никулин
[Профиль]  [ЛС] 

egismac

Гроза морей

Пост 10-Янв-2013 05:10 (спустя 6 часов)

[Q] 

спасибо, хорош.
[Профиль]  [ЛС] 

дядя КОЛЯ

Морской Волк

Пост 06-Июн-2013 21:28 (спустя 4 месяца 27 дней)

[Q] 

СПАСИБО ПОСМОТРЮ
[Профиль]  [ЛС] 

Mehanizator

Лоцман

Пост 24-Сен-2013 13:49 (спустя 3 месяца 17 дней)

[Q] 

!!!!!!!!!!!!!!!!!!!!!!Супер!!!!!!!!!!!!!!!!!!!!!!!! Спасибо за раздачу. Говорят что новое продолжение скоро выходит? Ктонить слышал?
[Профиль]  [ЛС] 

Дикарь

Лоцман

Пост 14-Дек-2013 21:33 (спустя 2 месяца 20 дней)

[Q] 

спасибо посмотрим.
[Профиль]  [ЛС] 

максимус

Юнга

Пост 01-Ноя-2014 00:34 (спустя 10 месяцев 17 дней)

[Q] 

Фильм понравился. Оставлю и буду смотреть еще. Спасибо за раздачу!!!
[Профиль]  [ЛС] 

Шелли

Пост 26-Мар-2015 20:40 (спустя 4 месяца 25 дней)

[Q] 

Сериал отличный для философов и мистиков)Продолжение тоже очень даже стоящее.Один из немногих последних сериалов, которые стоит посмотреть) Лови бочку

_________________

Валерьянка прекрасно успокаивает.Всего пять капель на бутылку вискаря- и нервы как канаты)
[Профиль]  [ЛС] 
Показать сообщения:    
Ответить на тему

Текущее время: Сегодня 00:36

Часовой пояс: GMT + 4



Вы не можете начинать темы
Вы не можете отвечать на сообщения
Вы не можете редактировать свои сообщения
Вы не можете удалять свои сообщения
Вы не можете голосовать в опросах
Вы не можете прикреплять файлы к сообщениям
Вы не можете скачивать файлы

▼ Вниз