ML
     
  Уважаемый Гость!
Вы можете поддержать проект и зарегистрироваться у наших партнеров - онлайн-стратегия MyLands. При регистрации в игре Вы получите код, который сможете активировать после регистрации на pirat.ca и получить 1000 дублонов.

Ваш код:
ea554e7ed3eacceeae87a8b30a9de3f086c18a84
 
     

Меч (1-25 серии из 25) / Сезон: 1 / Серии: 1-25 из 25 (Рустам Уразаев, Виктор Конисевич) [2009 г., боевик, драма, DVDRip]

Ответить на тему
 
Автор
Сообщение

Пост 07-Июл-2012 17:40

[Q] 

grubov

Морской Волк

Меч (1-25 серии из 25)
«Невиновного кровь – беда, виноватого кровь – вода.»

Производство: Россия
Жанр: боевик, драма
Год выпуска: 2009 г.
Продолжительность: 25 х 00:48:00
Релиз на DVD: 23 февраля 2010, «Русское счастье»
Перевод: не требуется
Режиссер: Рустам Уразаев, Виктор Конисевич
В ролях: Эдуард Флеров, Роман Курцын, Тимур Ефременков, Дарья Повереннова, Виктория Фишер
Описание: Наши дни. Москва. Растущий мегаполис выходит из-под контроля милиции. Уровень преступности растет в геометрической прогрессии. Макс Калинин бывший офицер разведки ВДВ, оперативник УБОП. По фиктивному обвинению его увольняют со службы. На деле Макс просто не согласился отпустить преступника, за которого кто-то из его руководства получил большую взятку. Калинин принимает непростое решение, он будет бороться с беззаконием своими методами. Макс собирает маленькую команду единомышленников.
Команда разрастается и постепенно превращается в опасную и жестокую карательную организацию, которой боятся все. Они выбирают своим знаком меч, так же их называют и журналисты. На улицах города разворачивается настоящая война. «Меч» находится между двух зол — криминального мира, который объявляет огромные деньги за их «головы» и своих бывших коллег, которые начинают охоту на «оборотней».
Качество видео: DVDRip
Формат видео: AVI
Видео кодек: XviD
Аудио кодек: AC3
Видео: 704x400 (16:9), 25 fps, XviD build 50 ~1115 kbps avg, 0.158 bit/pixel
Аудио: 48 kHz, AC-3, 2 ch, ~192.00 kbps avg
Общее
Полное имя : D:\фильмы\Mech.01-25.ser\Mech.01.ser.iz.25.2009.XviD.SATRip.CinemaFoR.avi
Формат : AVI
Формат/Информация : Audio Video Interleave
Размер файла : 450 Мбайт
Продолжительность : 47 м.
Общий поток : 1313 Кбит/сек
Программа кодирования : VirtualDubMod 1.5.4.1 (build 2178/release)
Библиотека кодирования : VirtualDubMod build 2178/release
Видео
Идентификатор : 0
Формат : MPEG-4 Visual
Профиль формата : Advanced [email protected]
Параметр BVOP формата : 1
Параметр QPel формата : Нет
Параметр GMC формата : Без точки перехода
Параметр матрицы формата : Выборочная
Идентификатор кодека : XVID
Идентификатор кодека/Подсказка : XviD
Продолжительность : 47 м.
Битрейт : 1115 Кбит/сек
Ширина : 704 пикс.
Высота : 400 пикс.
Соотношение сторон : 16:9
Частота кадров : 25,000 кадр/сек
Цветовое пространство : YUV
Подвыборка цветности : 4:2:0
Битовая глубина : 8 бит
Тип развёртки : Прогрессивная
Метод сжатия : С потерями
0.158 Бит/Пиксел
Размер потока : 382 Мбайт (85%)
Библиотека кодирования : XviD 1.2.1 (UTC 2008-12-04)
Аудио
Идентификатор : 1
Формат : AC-3
Формат/Информация : Audio Coding 3
Расширение режима : CM (complete main)
Идентификатор кодека : 2000
Продолжительность : 47 м.
Вид битрейта : Постоянный
Битрейт : 192 Кбит/сек
Каналы : 2 канала
Расположение каналов : Front: L R
Частота : 48,0 КГц
Битовая глубина : 16 бит
Метод сжатия : С потерями
Размер потока : 65,8 Мбайт (15%)
Выравнивание : Разделение по промежуткам
Продолжительность промежутка : 96 мс. (2,40 видеокадра)
Время предзагрузки промежутка : 96 ms
Download / Скачать

Хотите скачать бесплатно? Зарегистрируйтесь на сайте (ссылка на регистрацию). Pirat.ca - самый быстрый торрент трекер в рунете!

Как скачивать  ·   Что такое торрент  ·   Рейтинг и ограничения



Последний раз редактировалось: grubov (2012-07-08 13:14), всего редактировалось 2 раз(а)

Андря

8409

Пост 08-Июл-2012 20:42 (спустя 1 день 3 часа)

[Q] 

Топик был перенесен из форума Сериалы в форум Отечественные сериалы
Андря

_________________
Като Тешекика
[Профиль]  [ЛС] 

SBalykov

Корсар

1452

Пост 11-Июл-2012 15:58 (спустя 2 дня 19 часов)

[Q] 

Жаль, что так и не сделали продолжения...

_________________
Never put off till tomorrow what can be done after tomorrow...
S.Balykov
[Профиль]  [ЛС] 

grubov ®

Морской Волк

54

Пост 15-Июл-2012 11:19 (спустя 3 дня)

[Q] 

Да жалко, обещали 2 часть, а потом что то съемки приостановили, конечно хотелось бы продолжение посмотреть!!!
[Профиль]  [ЛС] 

euro99

Штурман

Пост 04-Ноя-2012 00:41 (спустя 3 месяца 19 дней)

[Q] 

встаньте кто на раздачу хочу в архив себе скачать

_________________
EWZ999
[Профиль]  [ЛС] 

oleg_10000

Штурман

62

Пост 06-Янв-2013 16:51 (спустя 2 месяца 2 дня)

[Q] 

[Профиль]  [ЛС] 

sasha.shuten

Шкипер

Пост 01-Мар-2013 21:20 (спустя 1 месяц 26 дней)

[Q] 

195258Жаль, что так и не сделали продолжения...
Мне тоже
[Профиль]  [ЛС] 

arslanannaev

Морской Волк

Пост 02-Июл-2013 13:55 (спустя 4 месяца)

[Q] 


_________________
[Профиль]  [ЛС] 

alex denver71

Флибустьер

Пост 17-Ноя-2014 18:28 (спустя 1 год 4 месяца)

[Q] 

Автору респект!!! сериал хорош!!!!! cy
[Профиль]  [ЛС] 
Показать сообщения:    
Ответить на тему

Текущее время: Сегодня 12:13

Часовой пояс: GMT + 4



Вы не можете начинать темы
Вы не можете отвечать на сообщения
Вы не можете редактировать свои сообщения
Вы не можете удалять свои сообщения
Вы не можете голосовать в опросах
Вы не можете прикреплять файлы к сообщениям
Вы не можете скачивать файлы

▼ Вниз