ML
     
  Уважаемый Гость!
Вы можете поддержать проект и зарегистрироваться у наших партнеров - онлайн-стратегия MyLands. При регистрации в игре Вы получите код, который сможете активировать после регистрации на pirat.ca и получить 1000 дублонов.

Ваш код:
193c38d0130f05c24de871678ea3ac181461757d
 
     

Амазонки / Сезон: 1 Серии: 1-24 из 24 (Евгений Лаврентьев, Святослав Власов, Валентина Власова) [2011, Детектив, Комедия, SATRip]

Ответить на тему
 
Автор
Сообщение

Пост 08-Июл-2012 18:25

[Q] 

Андря

Амазонки
Год выпуска: 2011
Производство: НОВЫЙ ПРОЕКТ
Жанр: Детектив, Комедия
Продолжительность: 00:47:00
Режиссёр: Евгений Лаврентьев, Святослав Власов, Валентина Власова
В ролях: Наталья Рудова, Марина Коняшкина, Софья Игнатова, Марина Вайнбранд, Борис Хвошнянский, Валерий Афанасьев, Роман Радов, Александр Нестеров, Юрий Оленников, Ирина Шебеко, Нелли Неведина, Сергей Быстрицкий, Евгений Воскресенский, Павел Лобков, Михаил Богдасаров, Олеся (Ольга) Поташинская, Валерий Сторожик, Игнатий Акрачков, Павел Кассинский, Михаил Никольский, Максим Житник, Артем Григорьев, Ольга Науменко, Дмитрий Мазуров, Алексей Анищенко, Андрей Денисов, Евгений Крылов, Андрей Молотков, Роман Кузнеченко, Дмитрий Дементьев, Мария Фомина, Вера Иванко, Ольга Анненская, Нияз Гаджиев, Алина Ольшанская, Николай Аверюшкин, Леонид Калараш, Игорь Ванюшкин, Александр Кудинов, Артемий Малахов, Марина Правкина, Евгений Смирнов (II), Андрей Лебедев, Александр Зуев, Валерий Кудашкин, Владимир Чуприков, Анвар Халилулаев
Описание: Они обворожительны, сильны и сексуальны. Они — это специальное экспериментальное подразделение (СЭП) «Амазонки», созданное в рамках научно-исследовательского центра следственного комитета МВД России. Четвёрка прелестных спецагентов расследует самые запутанные и невероятные преступления. Там, где мужской ум оказывается в тупике, на помощь приходят детективы в юбках! И кто сказал, что это не женская работа? В их руках оружие, мощнее водородной бомбы. Их главный козырь — неповторимая женская интуиция и женская логика! Какими бы ни были обстоятельства, «Амазонки» всегда добьются положительного результата. Правда, не всегда поймут, как именно они его добились….
Энергию неукротимых Амазонок направляет в нужное русло мозг следственной группы, талантливый ученый по фамилии Крестовский. Он держит под контролем весь ход расследования и всегда приходит на помощь в трудную минуту. Именно Крестовский разработал так называемый интуитивный метод, когда преступление помогает раскрыть не логическое дедуктивное построение, а интуитивное спонтанное поведение. В ходе эксперимента он пришел к совершенно неожиданному для себя выводу: лучших результатов в интуитивном методе достигают именно особы женского пола. Для подтверждения данной гипотезы из девушек с разными психотипами была собрана команда «Амазонки».
Женская логика непредсказуема! Женская красота непобедима!
Качество: SATRip
Формат: AVI
Видео кодек: XviD
Аудио кодек: MP3
Видео: XviD, 1394 Кбит/сек, 704х400, 16:9, 25,000 кадров/сек, 8 бит, 0.198 Бит/Пиксел
Аудио: MPEG Audio Layer 3, 128 Кбит/сек, 2 канала, 48,0 КГц
Общее
Полное имя : Amazonki\Amazonki.01.2011.SATRip.RiperAM.avi
Формат : AVI
Формат/Информация : Audio Video Interleave
Размер файла : 524 Мбайт
Продолжительность : 47 м.
Общий поток : 1532 Кбит/сек
Программа кодирования : VirtualDubMod 1.5.10.3 | www.virtualdub-fr.org || (build 2550/release)
Библиотека кодирования : VirtualDubMod build 2550/release
Видео
Идентификатор : 0
Формат : MPEG-4 Visual
Профиль формата : Advanced [email protected]
Параметр BVOP формата : 2
Параметр QPel формата : Нет
Параметр GMC формата : Без точки перехода
Параметр матрицы формата : Default (MPEG)
Режим смешивания : Сжатый битовый поток
Идентификатор кодека : XVID
Идентификатор кодека/Подсказка : XviD
Продолжительность : 47 м.
Битрейт : 1394 Кбит/сек
Ширина : 704 пикселя
Высота : 400 пикселей
Соотношение сторон : 16:9
Частота кадров : 25,000 кадров/сек
Цветовое пространство : YUV
Субдискретизация насыщенности : 4:2:0
Битовая глубина : 8 бит
Тип развёртки : Прогрессивная
Метод сжатия : С потерями
Бит/(Пиксели*Кадры) : 0.198
Размер потока : 477 Мбайт (91%)
Библиотека кодирования : XviD 64
Аудио
Идентификатор : 1
Формат : MPEG Audio
Версия формата : Version 1
Профиль формата : Layer 3
Режим : Joint stereo
Расширение режима : MS Stereo
Идентификатор кодека : 55
Идентификатор кодека/Подсказка : MP3
Продолжительность : 47 м.
Вид битрейта : Постоянный
Битрейт : 128 Кбит/сек
Каналы : 2 канала
Частота : 48,0 КГц
Метод сжатия : С потерями
Размер потока : 43,8 Мбайт (8%)
Выравнивание : Соединение по промежуткам
Продолжительность промежутка : 40 мс. (1,00 видеокадр)
Время предзагрузки промежутка : 504 мс.
Библиотека кодирования : LAME3.90.3ЄЄЄЄЄЄЄЄЄЄ




Download / Скачать

Хотите скачать бесплатно? Зарегистрируйтесь на сайте (ссылка на регистрацию). Pirat.ca - самый быстрый торрент трекер в рунете!

Как скачивать  ·   Что такое торрент  ·   Рейтинг и ограничения

Пост 09-Июл-2012 13:57 (спустя 19 часов)

Топик был перенесен из форума Сериалы в форум Отечественные сериалы

gEmOkPaT
 
Показать сообщения:    
Ответить на тему

Текущее время: Сегодня 18:08

Часовой пояс: GMT + 4



Вы не можете начинать темы
Вы не можете отвечать на сообщения
Вы не можете редактировать свои сообщения
Вы не можете удалять свои сообщения
Вы не можете голосовать в опросах
Вы не можете прикреплять файлы к сообщениям
Вы не можете скачивать файлы

▼ Вниз