ML
     
  Уважаемый Гость!
Вы можете поддержать проект и зарегистрироваться у наших партнеров - онлайн-стратегия MyLands. При регистрации в игре Вы получите код, который сможете активировать после регистрации на pirat.ca и получить 1000 дублонов.

Ваш код:
0af2e2107bc9b5dd5ac2c09f9fc25e1a77c43887
 
     

Бабье царство (1-4 серии из 4) (Кира Ангелина) [2012 г., Мелодрама, DVDRip] [лицензия]

Ответить на тему
 
Автор
Сообщение

Пост 19-Июл-2012 14:45

[Q] 

Znoi

Флибустьер

Бабье царство (1-4 серии из 4)- --Производство: Россия, Про100 Продакшн
Жанр: Мелодрама
Год выпуска: 2012 г.
Продолжительность: 4 х ~ 00:42:00--Российская премьера: 16 июня 2012
Дата выхода DVD: 10 июля 2012
Перевод: Не требуется [лицензия]
Оригинальный аудиопоток: русский--Режиссер: Кира Ангелина--В ролях: Ольга Ломоносова, Олег Масленников-Войтов, Александр Арсентьев, Елена Мольченко (Фатюшина), Валерий Дегтярь, Евгения Трофимова, Влада Макейчик--Описание: Оксана - успешная молодая женщина, директор одного из крупнейших рекламных агентств Москвы. Головокружительный успех на работе - главное в жизни Оксаны, более того, она намерена побороться за тендер на рекламную компанию некого английского бренда и в результате продолжить работу в Лондоне. Но в личной жизни у Оксаны сплошные разочарования: роман с женатым мужчиной сложно назвать женским счастьем...-- --Качество видео: DVDRip
Формат видео: AVI
Видео кодек: XviD
Аудио кодек: AC3
Видео: XviD, ~ 1798 Кбит/с, 720x400, 25.000 fps
Аудио: AC3, 2 ch, 192 Кбит/с, 48.0 KHz
Cубтитры: отсутствуют
General
Complete name : D:\Babe.carstvo.(1-4.serii.iz.4).2012.XviD.DVDRip.[pirat.ca]\Babe.carstvo.(1.seriya.iz.4).2012.XviD.DVDRip.avi
Format : AVI
Format/Info : Audio Video Interleave
File size : 600 MiB
Duration : 41mn 56s
Overall bit rate : 2 001 Kbps
Movie name : Bab'e.Carstvo.1.seriya.iz.4.2012.DVDRip.IRONCLUB
Director :
Writing application : VirtualDubMod 1.5.10.2 (build 2540/release)
Original source form/Name : Movie
Copyright :
Video
ID : 0
Format : MPEG-4 Visual
Format profile : Advanced [email protected]
Format settings, BVOP : No
Format settings, QPel : No
Format settings, GMC : No warppoints
Format settings, Matrix : Custom
Codec ID : XVID
Codec ID/Hint : XviD
Duration : 41mn 56s
Bit rate : 1 799 Kbps
Width : 720 pixels
Height : 400 pixels
Display aspect ratio : 16:9
Frame rate : 25.000 fps
Color space : YUV
Chroma subsampling : 4:2:0
Bit depth : 8 bits
Scan type : Progressive
Compression mode : Lossy
Bits/(Pixel*Frame) : 0.250
Stream size : 540 MiB (90%)
Writing library : XviD 1.2.1 (UTC 2008-12-04)
Audio
ID : 1
Format : AC-3
Format/Info : Audio Coding 3
Mode extension : CM (complete main)
Format settings, Endianness : Big
Codec ID : 2000
Duration : 41mn 55s
Bit rate mode : Constant
Bit rate : 192 Kbps
Channel(s) : 2 channels
Channel positions : Front: L R
Sampling rate : 48.0 KHz
Bit depth : 16 bits
Compression mode : Lossy
Stream size : 57.6 MiB (10%)
Alignment : Split accross interleaves
General
Complete name : D:\Babe.carstvo.(1-4.serii.iz.4).2012.XviD.DVDRip.[pirat.ca]\Babe.carstvo.(2.seriya.iz.4).2012.XviD.DVDRip.avi
Format : AVI
Format/Info : Audio Video Interleave
File size : 600 MiB
Duration : 43mn 56s
Overall bit rate : 1 909 Kbps
Movie name : Bab'e.Carstvo.2.seriya.iz.4.2012.DVDRip.IRONCLUB
Director :
Writing application : VirtualDubMod 1.5.10.2 (build 2540/release)
Original source form/Name : Movie
Copyright :
Video
ID : 0
Format : MPEG-4 Visual
Format profile : Advanced [email protected]
Format settings, BVOP : No
Format settings, QPel : No
Format settings, GMC : No warppoints
Format settings, Matrix : Custom
Codec ID : XVID
Codec ID/Hint : XviD
Duration : 43mn 56s
Bit rate : 1 707 Kbps
Width : 720 pixels
Height : 400 pixels
Display aspect ratio : 16:9
Frame rate : 25.000 fps
Color space : YUV
Chroma subsampling : 4:2:0
Bit depth : 8 bits
Scan type : Progressive
Compression mode : Lossy
Bits/(Pixel*Frame) : 0.237
Stream size : 537 MiB (89%)
Writing library : XviD 1.2.1 (UTC 2008-12-04)
Audio
ID : 1
Format : AC-3
Format/Info : Audio Coding 3
Mode extension : CM (complete main)
Format settings, Endianness : Big
Codec ID : 2000
Duration : 43mn 56s
Bit rate mode : Constant
Bit rate : 192 Kbps
Channel(s) : 2 channels
Channel positions : Front: L R
Sampling rate : 48.0 KHz
Bit depth : 16 bits
Compression mode : Lossy
Stream size : 60.3 MiB (10%)
Alignment : Split accross interleaves
Interleave, duration : 40 ms (1.00 video frame)
Interleave, preload duration : 500 ms
General
Complete name : D:\Babe.carstvo.(1-4.serii.iz.4).2012.XviD.DVDRip.[pirat.ca]\Babe.carstvo.(3.seriya.iz.4).2012.XviD.DVDRip.avi
Format : AVI
Format/Info : Audio Video Interleave
File size : 600 MiB
Duration : 43mn 19s
Overall bit rate : 1 937 Kbps
Movie name : Bab'e.Carstvo.3.seriya.iz.4.2012.DVDRip.IRONCLUB
Director :
Writing application : VirtualDubMod 1.5.10.2 (build 2540/release)
Original source form/Name : Movie
Copyright :
Video
ID : 0
Format : MPEG-4 Visual
Format profile : Advanced [email protected]
Format settings, BVOP : No
Format settings, QPel : No
Format settings, GMC : No warppoints
Format settings, Matrix : Custom
Codec ID : XVID
Codec ID/Hint : XviD
Duration : 43mn 19s
Bit rate : 1 735 Kbps
Width : 720 pixels
Height : 400 pixels
Display aspect ratio : 16:9
Frame rate : 25.000 fps
Color space : YUV
Chroma subsampling : 4:2:0
Bit depth : 8 bits
Scan type : Progressive
Compression mode : Lossy
Bits/(Pixel*Frame) : 0.241
Stream size : 538 MiB (90%)
Writing library : XviD 1.2.1 (UTC 2008-12-04)
Audio
ID : 1
Format : AC-3
Format/Info : Audio Coding 3
Mode extension : CM (complete main)
Format settings, Endianness : Big
Codec ID : 2000
Duration : 43mn 18s
Bit rate mode : Constant
Bit rate : 192 Kbps
Channel(s) : 2 channels
Channel positions : Front: L R
Sampling rate : 48.0 KHz
Bit depth : 16 bits
Compression mode : Lossy
Stream size : 59.5 MiB (10%)
Alignment : Split accross interleaves
Interleave, duration : 40 ms (1.00 video frame)
Interleave, preload duration : 500 ms
General
Complete name : D:\Babe.carstvo.(1-4.serii.iz.4).2012.XviD.DVDRip.[pirat.ca]\Babe.carstvo.(4.seriya.iz.4).2012.XviD.DVDRip.avi
Format : AVI
Format/Info : Audio Video Interleave
File size : 600 MiB
Duration : 48mn 32s
Overall bit rate : 1 728 Kbps
Movie name : Bab'e.Carstvo.4.seriya.iz.4.2012.DVDRip.IRONCLUB
Director :
Writing application : VirtualDubMod 1.5.10.2 (build 2540/release)
Original source form/Name : Movie
Copyright :
Video
ID : 0
Format : MPEG-4 Visual
Format profile : Advanced [email protected]
Format settings, BVOP : No
Format settings, QPel : No
Format settings, GMC : No warppoints
Format settings, Matrix : Custom
Codec ID : XVID
Codec ID/Hint : XviD
Duration : 48mn 32s
Bit rate : 1 526 Kbps
Width : 720 pixels
Height : 400 pixels
Display aspect ratio : 16:9
Frame rate : 25.000 fps
Color space : YUV
Chroma subsampling : 4:2:0
Bit depth : 8 bits
Scan type : Progressive
Compression mode : Lossy
Bits/(Pixel*Frame) : 0.212
Stream size : 530 MiB (88%)
Writing library : XviD 1.2.1 (UTC 2008-12-04)
Audio
ID : 1
Format : AC-3
Format/Info : Audio Coding 3
Mode extension : CM (complete main)
Format settings, Endianness : Big
Codec ID : 2000
Duration : 48mn 31s
Bit rate mode : Constant
Bit rate : 192 Kbps
Channel(s) : 2 channels
Channel positions : Front: L R
Sampling rate : 48.0 KHz
Bit depth : 16 bits
Compression mode : Lossy
Stream size : 66.6 MiB (11%)
Alignment : Split accross interleaves
Interleave, duration : 40 ms (1.00 video frame)
Interleave, preload duration : 500 ms
Download / Скачать

Хотите скачать бесплатно? Зарегистрируйтесь на сайте (ссылка на регистрацию). Pirat.ca - самый быстрый торрент трекер в рунете!

Как скачивать  ·   Что такое торрент  ·   Рейтинг и ограничения

wwwboss13421

Штурман

Пост 19-Июл-2012 16:19 (спустя 1 час 33 минуты)

[Q] 

От жены спасибо,от меня бочка за труды az

_________________
[Профиль]  [ЛС] 

Пост 19-Июл-2012 20:01 (спустя 3 часа)

Топик был перенесен из форума Сериалы в форум Отечественные сериалы

Свой
 
Показать сообщения:    
Ответить на тему

Текущее время: Сегодня 00:09

Часовой пояс: GMT + 4



Вы не можете начинать темы
Вы не можете отвечать на сообщения
Вы не можете редактировать свои сообщения
Вы не можете удалять свои сообщения
Вы не можете голосовать в опросах
Вы не можете прикреплять файлы к сообщениям
Вы не можете скачивать файлы

▼ Вниз