ML
     
  Уважаемый Гость!
Вы можете поддержать проект и зарегистрироваться у наших партнеров - онлайн-стратегия MyLands. При регистрации в игре Вы получите код, который сможете активировать после регистрации на pirat.ca и получить 1000 дублонов.

Ваш код:
500cb7bd8d2cec9a8aba647a87ce41c4b76f06bd
 
     

Звездочет / Серии: 1-12 из 12 (Гурий Атнев) [2004 г., боевик, DVDRip]

Ответить на тему
 
Автор
Сообщение

Пост 05-Авг-2012 21:28

[Q] 

dmsushko

Корсар

-Звездочет / Серии: 12 из 12-- Производство: Россия, Аватар Фильм
Жанр: боевик
Год выпуска: 2004 г.
Продолжительность: 12 x ~00:45:00
Российская премьера: 15 ноября 2004
Дата выхода DVD: 2 декабря 2004
Режиссер: Гурий Атнев-В ролях: Владимир Вдовиченков, Ирина Леонова, Даниил Страхов, Юлия Свежакова, Александр Тютин, Иван Шабалтас, Игорь Лифанов, Дмитрий Шевченко, Валерий Золотухин, Павел Деревянко-Описание: Его зовут Сергей Чумаков. А еще он известен как Звездочет. Но его второе имя знает очень ограниченный круг людей - его коллеги по нелегкому шпионскому делу. Маленький Сережа не мечтал стать космонавтом или бизнесменом. Он всегда мечтал стать настоящим шпионом. И суровая действительность детского дома, в котором он воспитывался, не поколебала его решимости. Сейчас ему всего 25. Но за спиной молодого человека - богатый список самых неожиданных и остроумных афер. Пока он вынужден жить в Праге, потому что игры в прятки с "крутыми криминальными авторитетами" на Родине не прошли даром. Теперь в его кармане чужие документы, а временный дом - в небольшой гостинице. Вместе с Сергеем живет Лена, умная и хорошенькая девушка, которая ему совсем не пара. Как всегда неожиданно заканчиваются деньги, и Сергей отправляется на безобидные заработки. Но приключения - его удел. Именно поэтому он попадает в самую гущу борьбы спецслужб сразу нескольких стран. За Чумаковым начинается охота, он скрывается... Феерическое развитие событий приводит к тому, что Сергеем заинтересовывается служба внешней разведки России. Он получает предложение от генерала Шевцова стать секретным агентом СВР. Там он и становится "Звездочетом"... Легкомысленному и беспечному парню предстоит превратиться в настоящего бойца, для которого понятие Родины становится частью его существа...- Качество видео: DVDRip
Формат видео: AVI
Видео кодек: XviD
Аудио кодек: AC3
Видео: 720x416 (1.73:1), 29.970 fps, XviD build 47 ~1765 kbps avg, 0.20 bit/pixel
Аудио: 48 kHz, AC3 Dolby Digital, 3/2 (L,C,R,l,r) + LFE ch, ~448 kbps
General
Complete name : Zvezdochet.(01.serij.iz.12).2004.XviD.DVDRip.[pirat.ca].avi
Format : AVI
Format/Info : Audio Video Interleave
File size : 701 MiB
Duration : 44mn 23s
Overall bit rate : 2 207 Kbps
Writing application : VirtualDubMod 1.5.10.2 (build 2540/release)
Writing library : VirtualDubMod build 2540/release
Video
ID : 0
Format : MPEG-4 Visual
Format profile : Advanced [email protected]
Format settings, BVOP : 2
Format settings, QPel : No
Format settings, GMC : No warppoints
Format settings, Matrix : Default (MPEG)
Codec ID : XVID
Codec ID/Hint : XviD
Duration : 44mn 23s
Bit rate : 1 747 Kbps
Width : 720 pixels
Height : 416 pixels
Display aspect ratio : 16:9
Frame rate : 29.970 fps
Color space : YUV
Chroma subsampling : 4:2:0
Bit depth : 8 bits
Scan type : Progressive
Compression mode : Lossy
Bits/(Pixel*Frame) : 0.195
Stream size : 555 MiB (79%)
Writing library : XviD 1.2.0.dev47 (UTC 2006-11-01)
Audio
ID : 1
Format : AC-3
Format/Info : Audio Coding 3
Mode extension : CM (complete main)
Codec ID : 2000
Duration : 44mn 23s
Bit rate mode : Constant
Bit rate : 448 Kbps
Channel(s) : 6 channels
Channel positions : Front: L C R, Side: L R, LFE
Sampling rate : 48.0 KHz
Bit depth : 16 bits
Compression mode : Lossy
Stream size : 142 MiB (20%)
Alignment : Split accross interleaves
Interleave, duration : 33 ms (1.00 video frame)
Interleave, preload duration : 500 ms





Релиз:
Download / Скачать

Хотите скачать бесплатно? Зарегистрируйтесь на сайте (ссылка на регистрацию). Pirat.ca - самый быстрый торрент трекер в рунете!

Как скачивать  ·   Что такое торрент  ·   Рейтинг и ограничения



Последний раз редактировалось: dmsushko (2012-08-06 13:15), всего редактировалось 1 раз

Пост 06-Авг-2012 16:47 (спустя 19 часов)

Топик был перенесен из форума Отечественные сериалы (Трюм) в форум Отечественные сериалы

Андря
 

FeudorM

Корсар

Пост 01-Окт-2012 09:22 (спустя 1 месяц 25 дней)

[Q] 

[Профиль]  [ЛС] 

Андря

8409

Пост 13-Фев-2013 16:06 (спустя 4 месяца 12 дней)

[Q] 

больше месяца

_________________
Като Тешекика
[Профиль]  [ЛС] 

Пост 13-Фев-2013 16:08 (спустя 2 минуты)

Топик был перенесен из форума Отечественные сериалы в форум Архив (Отечественные сериалы)

Андря
 

CHARLI2236

1094

Пост 19-Фев-2013 01:20 (спустя 5 дней)

[Q] 

спасибо

_________________
[Профиль]  [ЛС] 

pp2141

Гроза морей

Пост 15-Май-2013 08:53 (спустя 2 месяца 24 дня)

[Q] 

Спасибо
[Профиль]  [ЛС] 

jofrei53

Корсар

Пост 15-Янв-2014 11:59 (спустя 8 месяцев)

[Q] 

Спасибо! ! ! Супер! Автору респект!!!
[Профиль]  [ЛС] 
Показать сообщения:    
Ответить на тему

Текущее время: Сегодня 01:46

Часовой пояс: GMT + 4



Вы не можете начинать темы
Вы не можете отвечать на сообщения
Вы не можете редактировать свои сообщения
Вы не можете удалять свои сообщения
Вы не можете голосовать в опросах
Вы не можете прикреплять файлы к сообщениям
Вы не можете скачивать файлы

▼ Вниз