ML
     
  Уважаемый Гость!
Вы можете поддержать проект и зарегистрироваться у наших партнеров - онлайн-стратегия MyLands. При регистрации в игре Вы получите код, который сможете активировать после регистрации на pirat.ca и получить 1000 дублонов.

Ваш код:
500cb7bd8d2cec9a8aba647a87ce41c4b76f06bd
 
     

Знахарка / Сезон: 1 / Серии: 1-4 из 4 (Владимир Тумаев) [2012 г., комедия, мелодрама, SATRip]

Ответить на тему
 
Автор
Сообщение

Пост 25-Авг-2012 20:56

[Q] 

Dizell2102

-Знахарка-- Производство: Россия, Кинокомпания "Студия Паламеда"
Жанр: комедия, мелодрама
Год выпуска: 2012 г.
Продолжительность: 02:56:00
Режиссер: Владимир Тумаев-В ролях: Юлия Кадушкевич, Павел Новиков, Людмила Полякова, Вероника Пляшкевич, Андрей Сенькин (II), Ирина Нарбекова, Анатолий Котенёв-Описание: У юной красавицы Леси редкий дар: она умеет лечить людей, исцеляя даже те болезни, с которыми не справляется современная медицина. Дар у Леси наследственный: знахарками были и ее покойная мать, и бабушка, с которой Леся живет в старом деревенском доме.
Однажды в деревню приезжает богатый бизнесмен Аркадий, отчаявшийся вылечить свою травму. Леся справляется с его болезнью. Аркадий и Леся влюбляются друг в друга, и Аркадий делает героине предложение.
Казалось бы, судьба Леси счастливо решена: жизнь в городе, в роскошной квартире, с любящем мужем… Но Лесина бабушка в отчаянии. Она единственная знает: дар Леси в городе пропадет.
-
Качество видео: SATRip
Формат видео: AVI
Видео кодек: XviD
Аудио кодек: MP3
Видео: 720x400 (1.80:1), 25 fps, XviD build 64 ~1499 kbps avg, 0.21 bit/pixel
Аудио: 48 kHz, MPEG Layer 3, 2 ch, ~192.00 kbps avg
Cубтитры: отсутствуют
Полное имя : C:\Users\Dizell\Desktop\Znaharka.(01.serija.iz.4).2012.XviD.SATRip-Pirat.ca.avi
Формат : AVI
Формат/Информация : Audio Video Interleave
Размер файла : 535 Мбайт
Продолжительность : 43 м.
Общий поток : 1705 Кбит/сек
Программа кодирования : XviD4PSP 6.0 / 54.14.100
Видео
Идентификатор : 0
Формат : MPEG-4 Visual
Профиль формата : Advanced [email protected]
Параметр BVOP формата : 1
Параметр QPel формата : Нет
Параметр GMC формата : Без точки перехода
Параметр матрицы формата : Default (H.263)
Идентификатор кодека : XVID
Идентификатор кодека/Подсказка : XviD
Продолжительность : 43 м.
Битрейт : 1500 Кбит/сек
Ширина : 720 пикселей
Высота : 400 пикселей
Соотношение сторон : 16:9
Частота кадров : 25,000 кадров/сек
Цветовое пространство : YUV
Субдискретизация насыщенности : 4:2:0
Битовая глубина : 8 бит
Тип развёртки : Прогрессивная
Метод сжатия : С потерями
Бит/(Пиксели*Кадры) : 0.208
Размер потока : 471 Мбайт (88%)
Библиотека кодирования : XviD 64
Аудио
Идентификатор : 1
Формат : MPEG Audio
Версия формата : Version 1
Профиль формата : Layer 3
Режим : Joint stereo
Расширение режима : MS Stereo
Идентификатор кодека : 55
Идентификатор кодека/Подсказка : MP3
Продолжительность : 43 м.
Вид битрейта : Постоянный
Битрейт : 192 Кбит/сек
Каналы : 2 канала
Частота : 48,0 КГц
Метод сжатия : С потерями
Размер потока : 60,3 Мбайт (11%)
Выравнивание : Соединение по промежуткам
Продолжительность промежутка : 24 мс. (0,60 видеокадр)
Библиотека кодирования : LAME3.99.4
Продолжительность: 4 х 00:44:00
Download / Скачать

Хотите скачать бесплатно? Зарегистрируйтесь на сайте (ссылка на регистрацию). Pirat.ca - самый быстрый торрент трекер в рунете!

Как скачивать  ·   Что такое торрент  ·   Рейтинг и ограничения



Последний раз редактировалось: Dizell2102 (2012-08-26 00:19), всего редактировалось 3 раз(а)

Dizell2102 ®

1635

Пост 25-Авг-2012 21:05 (спустя 8 минут)

[Q] 

Фильм залит полностью
[Профиль]  [ЛС] 

Пост 26-Авг-2012 08:19 (спустя 11 часов)

Топик был перенесен из форума Отечественные сериалы (Трюм) в форум Отечественные сериалы

gEmOkPaT
 
Показать сообщения:    
Ответить на тему

Текущее время: Сегодня 01:50

Часовой пояс: GMT + 4



Вы не можете начинать темы
Вы не можете отвечать на сообщения
Вы не можете редактировать свои сообщения
Вы не можете удалять свои сообщения
Вы не можете голосовать в опросах
Вы не можете прикреплять файлы к сообщениям
Вы не можете скачивать файлы

▼ Вниз