ML
     
  Уважаемый Гость!
Вы можете поддержать проект и зарегистрироваться у наших партнеров - онлайн-стратегия MyLands. При регистрации в игре Вы получите код, который сможете активировать после регистрации на pirat.ca и получить 1000 дублонов.

Ваш код:
cc3be08b7507661c03e0a2f582d0da3a659ea55a
 
     

Салями (Серии: 1-4 из 4 )( Владимир Басов (младший), Ольга Басова) [2011, Мелодрама, комедия, DVDRip](Original)

Ответить на тему
 
Автор
Сообщение

Пост 12-Дек-2011 08:50

[Q] 

TRACHH

Штурман

-СалямиСерии: 1-4 из 4-- Год выпуска: 2011
Страна: Россия, кинокомпания «Арт-Экспресс»
Жанр: Мелодрама, комедия
Продолжительность: 4 х ~ 00:45:00
Режиссер: Владимир Басов мл., Ольга Басова
Сценарий: Александр Басов
Продюссер: Максим Кармен
В ролях: Анна Легчилова, Евгений Дятлов, Елена Бирюкова, Андрей Вальц, Дарья Чаруша, Александр Сотников, Юрий Кузьменков, Иван Мудров, Ира Вальц, Елена Валевская, Владимир Басов (младший), Юрий Федоров (II), Александр Бобков, Александр Числов, Анатолий Семёнов (III), Эротта Каменецкая, Нина Белослудцева, Светлана Евдокимова, Александр Аккуратов, Анастасия Бакланова (младшая), Игорь Ливенцов, Алексей Кондратюк, Светлана Кравцова
Премьера (РФ): 20 августа 2011
Релиз на DVD: 20 октября 2011, «CP-Digital»


Салями – это прозвище главной героини фильма.
Главную героиню сокращают с работы в одном НИИ. Она находится в поисках работы, и по рекомендациям своей подруги, устраивается в одну солидную фирму, которая занимается покупкой и реставрацией старых кораблей. И, соответственно, влюбляется в директора фирмы, у которого, в свою очередь есть молодая (но не любимая!) жена. Жена «крутит шашни» со своим адвокатом, эта любовная парочка объединилась на почве «темных дел», связанных с работой судостроительной компании мужа. Добро как водится, побеждает зло, а настоящая любовь – предательства и измены.

Качество: DVDRip
Озвучивание: Оригинал
Формат: AVI
Видео кодек: XviD
Аудио кодек: AC3
Видео: 720x400 (1.80:1), 25 fps, XviD build 50 ~1754 kbps avg, 0.24 bit/pixel
Аудио: 48 kHz, AC3 Dolby Digital, 3/2 (L,C,R,l,r) + LFE ch, ~448 kbps
-- --



Общее
Полное имя : E:\Сериал Салями DVDRip\01 серия.avi
Формат : AVI
Формат/Информация : Audio Video Interleave
Размер файла : 701 Мбайт
Продолжительность : 44 м.
Общий поток : 2213 Кбит/сек
Название фильма : Saljami.(1.serija.iz.4)2011.O.DVDRip.ELEKTRI4KA
Режиссёр : ELEKTRO-Am
Программа кодирования : VirtualDubMod 1.5.10.2 (build 2540/release)
Правообладатель : ELEKTRI4KA
Видео
Идентификатор : 0
Формат : MPEG-4 Visual
Профиль формата : Advanced [email protected]
Параметр BVOP формата : 2
Параметр QPel формата : Нет
Параметр GMC формата : Без точки перехода
Параметр матрицы формата : Выборочная
Идентификатор кодека : XVID
Идентификатор кодека/Подсказка : XviD
Продолжительность : 44 м.
Битрейт : 1755 Кбит/сек
Ширина : 720 пикселей
Высота : 400 пикселей
Соотношение сторон : 16:9
Частота кадров : 25,000 кадров/сек
Цветовое пространство : YUV
Субдискретизация насыщенности : 4:2:0
Битовая глубина : 8 бит
Тип развёртки : Прогрессивная
Метод сжатия : С потерями
Бит/(Пиксели*Кадры) : 0.244
Размер потока : 556 Мбайт (79%)
Библиотека кодирования : XviD 1.2.1 (UTC 2008-12-04)
Аудио
Идентификатор : 1
Формат : AC-3
Формат/Информация : Audio Coding 3
Расширение режима : CM (complete main)
Идентификатор кодека : 2000
Продолжительность : 44 м.
Вид битрейта : Постоянный
Битрейт : 448 Кбит/сек
Каналы : 6 каналов
Расположение каналов : Front: L C R, Side: L R, LFE
Частота : 48,0 КГц
Битовая глубина : 16 бит
Метод сжатия : С потерями
Размер потока : 142 Мбайт (20%)
Выравнивание : Соединение по промежуткам
Продолжительность промежутка : 40 мс. (1,00 видеокадр)
Время предзагрузки промежутка : 512 мс.
Download / Скачать

Хотите скачать бесплатно? Зарегистрируйтесь на сайте (ссылка на регистрацию). Pirat.ca - самый быстрый торрент трекер в рунете!

Как скачивать  ·   Что такое торрент  ·   Рейтинг и ограничения



Последний раз редактировалось: TRACHH (2011-12-12 17:19), всего редактировалось 1 раз

Пост 13-Дек-2011 03:56 (спустя 19 часов)

Топик был перенесен из форума Сериалы в форум Отечественные сериалы

gEmOkPaT
 

Dysy

Морской Волк

Пост 28-Янв-2014 15:05 (спустя 2 года 1 месяц)

[Q] 

раздавать будем или как ?
[Профиль]  [ЛС] 

rai

296

Пост 12-Май-2014 09:48 (спустя 3 месяца 14 дней)

[Q] 

Забрал. Раздачу поддержу.
[Профиль]  [ЛС] 
Показать сообщения:    
Ответить на тему

Текущее время: Сегодня 05:09

Часовой пояс: GMT + 4



Вы не можете начинать темы
Вы не можете отвечать на сообщения
Вы не можете редактировать свои сообщения
Вы не можете удалять свои сообщения
Вы не можете голосовать в опросах
Вы не можете прикреплять файлы к сообщениям
Вы не можете скачивать файлы

▼ Вниз