ML
     
  Уважаемый Гость!
Вы можете поддержать проект и зарегистрироваться у наших партнеров - онлайн-стратегия MyLands. При регистрации в игре Вы получите код, который сможете активировать после регистрации на pirat.ca и получить 1000 дублонов.

Ваш код:
e6008d9811a0b6a1393c3dc51ecd7bc35637bc21
 
     

Беглец(Женские мечты о дальних странах) / Сезон: 1 / Серии: 1-12 (Владимир Шевельков) [2010 г., Детектив, DVDRip]

Ответить на тему
 
Автор
Сообщение

Пост 06-Окт-2012 19:30

[Q] 

h5n1

Гроза морей

-Беглец(Женские мечты о дальних странах)-- Производство: Россия RWS
Жанр: Детектив
Год выпуска: 2010 г.
Продолжительность: 00:52:00
Режиссер: Владимир Шевельков-В ролях: Илья Носков, Марина Петренко, Елена Радевич, Сергей Фролов, Леонид Громов, Василий Мищенко, Александр Фисенко, Алла Юганова, Павел Сборщиков, Наталья Гудкова, Константин Соловьев, Евгения Ахременко, Илья Исаев, Ольга Милоянина, Александр Наумов, Анна-Стасия Бутучел, Александр Воробьев, Екатерина Соломатина, Жанна Воробьева, Дмитрий Панфилов, Михаил Котелов, Андрей Лебедев, Олег Соколовский, Руслан Ягудин, Анатолий Дзиваев, Игорь Недосейкин, Сергей Легостаев, Олег Каменщиков, Ольга Зайцева, Агния (Дарья) Мищенко-Бродская, Нодар Сирадзе, Самвел Асатрян, Сергей Степин, Евгений Кудрявцев-Описание: Вадим Чебаков - молод и успешен. Окончив один из самых престижный ВУЗов, он работает финансистом в крупной фирме. Начальство отправляет Вадима в командировку в Сочи, чтобы отвезти под охраной большую сумму денег. Нарушив все существующие распоряжения, будучи сломленным настойчивым напором со стороны своей девушки Гали, Вадим берет её с собой в поездку. Им так хотелось хоть несколько дней понежиться на морском берегу. Втроем они садятся в поезд в отдельное купе - далее следует вечер, проведенный за интересной беседой…
В результате, на юга уезжает только охранник, который спит беспробудным сном праведника, вырубленный лошадиной дозой снотворного, а сам Чебаков приходит в сознание на каком-то незнакомом зачуханном ж/д вокзале. Естественно, что кейса с деньгами при нем нет. Равно, как и его любимой девушки Гали…
С этой минуты жизнь успешного финансиста превращается в ад: его ищут все - от милиции до службы безопасности родной фирмы. Всё, что ему остается - без денег, без паспорта - это бежать. И единственное, что его сейчас волнует больше всего - это достать Галю из-под земли, а также того мерзавца, который помог ей провернуть это грязное дельце…-Качество видео: DVDRip
Формат видео: AVI
Видео кодек: XviD
Аудио кодек: AC3
Видео: XviD, ~1471 Кбит/сек, 720х400, 16:9, 25,000 кадров/сек, 8 бит, 0.204 Бит/Пиксел
Аудио: AC3, 2 ch, 192 Кбит/с ( в 7-8 сериях МР3, 2 ch, 192 Кбит/с)
Cубтитры: отсутствуют
Формат : AVI
Формат/Информация : Audio Video Interleave
Размер файла : 601 Мбайт
Продолжительность : 52 м.
Общий поток : 1606 Кбит/сек
Программа кодирования : VirtualDubMod 1.5.4.1 (build 2178/release)
Библиотека кодирования : VirtualDubMod build 2178/release
Видео
Идентификатор : 0
Формат : MPEG-4 Visual
Профиль формата : Advanced [email protected]
Параметр BVOP формата : 1
Параметр QPel формата : Нет
Параметр GMC формата : Без точки перехода
Параметр матрицы формата : Выборочная
Идентификатор кодека : XVID
Идентификатор кодека/Подсказка : XviD
Продолжительность : 52 м.
Битрейт : 1471 Кбит/сек
Ширина : 720 пикселей
Высота : 400 пикселей
Соотношение сторон : 16:9
Частота кадров : 25,000 кадров/сек
Цветовое пространство : YUV
Субдискретизация насыщенности : 4:2:0
Битовая глубина : 8 бит
Тип развёртки : Прогрессивная
Метод сжатия : С потерями
Бит/(Пиксели*Кадры) : 0.204
Размер потока : 550 Мбайт (92%)
Библиотека кодирования : XviD 1.2.1 (UTC 2008-12-04)
Аудио
Идентификатор : 1
Формат : AC-3
Формат/Информация : Audio Coding 3
Расширение режима : CM (complete main)
Параметр Endianness формата : Big
Идентификатор кодека : 2000
Продолжительность : 52 м.
Вид битрейта : Постоянный
Битрейт : 128 Кбит/сек
Каналы : 2 канала
Расположение каналов : Front: L R
Частота : 48,0 КГц
Битовая глубина : 16 бит
Метод сжатия : С потерями
Размер потока : 47,8 Мбайт (8%)
Выравнивание : Разделение по промежуткам
Продолжительность промежутка : 96 мс. (2,40 видеокадра)
Время предзагрузки промежутка : 96 мс.
Download / Скачать

Хотите скачать бесплатно? Зарегистрируйтесь на сайте (ссылка на регистрацию). Pirat.ca - самый быстрый торрент трекер в рунете!

Как скачивать  ·   Что такое торрент  ·   Рейтинг и ограничения



Последний раз редактировалось: h5n1 (2012-10-06 20:19), всего редактировалось 5 раз(а)

Пост 06-Окт-2012 23:22 (спустя 3 часа)

Топик был перенесен из форума Отечественные сериалы (Трюм) в форум Отечественные сериалы

Андря
 

h5n1 ®

Гроза морей

483

Пост 07-Окт-2012 06:07 (спустя 10 часов)

[Q] 

Андря, спасибо за помощь

_________________
«Мы находимся здесь, чтобы внести свой вклад в этот мир. Иначе зачем мы здесь?» S.Jobs
[Профиль]  [ЛС] 

maximka2006

Морской Волк

Пост 16-Окт-2012 12:02 (спустя 9 дней)

[Q] 

Как сериал? Качать стоит?
[Профиль]  [ЛС] 
Показать сообщения:    
Ответить на тему

Текущее время: Сегодня 02:04

Часовой пояс: GMT + 4



Вы не можете начинать темы
Вы не можете отвечать на сообщения
Вы не можете редактировать свои сообщения
Вы не можете удалять свои сообщения
Вы не можете голосовать в опросах
Вы не можете прикреплять файлы к сообщениям
Вы не можете скачивать файлы

▼ Вниз