ML
     
  Уважаемый Гость!
Вы можете поддержать проект и зарегистрироваться у наших партнеров - онлайн-стратегия MyLands. При регистрации в игре Вы получите код, который сможете активировать после регистрации на pirat.ca и получить 1000 дублонов.

Ваш код:
2932e5898d0a27592397f70b82a5834d1e70ea19
 
     

Условия контракта (1-9 серии из 9) (Игорь Мужжухин) [2011 г., Мелодрама, DVDRip](Original)

Ответить на тему
 
Автор
Сообщение

Пост 13-Дек-2011 19:06

[Q] 

Znoi

Флибустьер

--Условия контракта (1-9 серии из 9)
--Год выпуска: 2011
Российская премьера: 19 сентября 2011
Дата выхода DVD: 27 октября 2011
Производство: Россия, ЗАО "АРТЛАЙН", ООО "Лето продакшн"
Жанр: Мелодрама
Продолжительность: 9 х ~ 00:46:00
Оригинальный аудиопоток: Русский--Режиссер: Игорь Мужжухин--В ролях: Елена Великанова, Кирилл Сафонов, Наталья Рудова, Марина Куделинская, Наталья Данилова, Людмила Титова, Артем Осипов, Игорь Гудеев, Юрий Сазонов, Любовь Тихомирова, Полина Степанова, Наталья Лукеичева, Юлия Шиферштейн--Описание: Маша Павлова готовится к свадьбе. Ее жених Виктор - человек работящий, непьющий и очень надежный. И жизнь с ним обещает быть спокойной и размеренной. Но накануне праздника случается трагедия… Младшая сестра Маши Катюша, украшая зал для торжеств, падает со стремянки. Врачи констатируют: у девочки – рак мозга. Нужна срочная дорогостоящая операция. Маша обращается за помощью к жениху. Но Виктор считает, что Кате уже не поможешь, а продавать купленную квартиру просто неразумно. Чтобы спасти сестру, Маша едет в столичную частную клинику и соглашается стать суррогатной матерью...-- --Источник/Качество: DVDRip
Формат: AVI
Видео кодек: XviD
Аудио кодек: MP3
Видео: XviD, ~ 1574 Кбит/с, 720x400 пикс, 25,000 кадров/сек
Аудио: МР3, 2 ch, 128 Кбит/с, 48,0 КГц
General
Complete name : D:\Usloviya.kontrakta.(1-9.serii.iz.9).2011.XviD.DVDRip.[pirat.ca]\Usloviya.kontrakta.(1.serija.iz.9).2011.XviD.DVDRip.avi
Format : AVI
Format/Info : Audio Video Interleave
File size : 550 MiB
Duration : 44mn 53s
Overall bit rate : 1 713 Kbps
Writing application : VirtualDubMod 1.5.10.2 (build 2540/release)
Writing library : VirtualDubMod build 2540/release
Video
ID : 0
Format : MPEG-4 Visual
Format profile : Advanced [email protected]
Format settings, BVOP : 2
Format settings, QPel : No
Format settings, GMC : No warppoints
Format settings, Matrix : Default (MPEG)
Codec ID : XVID
Codec ID/Hint : XviD
Duration : 44mn 53s
Bit rate : 1 575 Kbps
Width : 720 pixels
Height : 400 pixels
Display aspect ratio : 16:9
Frame rate : 25.000 fps
Color space : YUV
Chroma subsampling : 4:2:0
Bit depth : 8 bits
Scan type : Progressive
Compression mode : Lossy
Bits/(Pixel*Frame) : 0.219
Stream size : 506 MiB (92%)
Writing library : XviD 64
Audio
ID : 1
Format : MPEG Audio
Format version : Version 1
Format profile : Layer 3
Mode : Joint stereo
Codec ID : 55
Codec ID/Hint : MP3
Duration : 44mn 53s
Bit rate mode : Constant
Bit rate : 128 Kbps
Channel(s) : 2 channels
Sampling rate : 48.0 KHz
Compression mode : Lossy
Stream size : 41.1 MiB (7%)
Alignment : Aligned on interleaves
Interleave, duration : 40 ms (1.00 video frame)
Interleave, preload duration : 504 ms
General
Complete name : D:\Usloviya.kontrakta.(1-9.serii.iz.9).2011.XviD.DVDRip.[pirat.ca]\Usloviya.kontrakta.(2.serija.iz.9).2011.XviD.DVDRip.avi
Format : AVI
Format/Info : Audio Video Interleave
File size : 550 MiB
Duration : 43mn 23s
Overall bit rate : 1 772 Kbps
Writing application : VirtualDubMod 1.5.10.2 (build 2540/release)
Writing library : VirtualDubMod build 2540/release
Video
ID : 0
Format : MPEG-4 Visual
Format profile : Advanced [email protected]
Format settings, BVOP : 2
Format settings, QPel : No
Format settings, GMC : No warppoints
Format settings, Matrix : Default (MPEG)
Codec ID : XVID
Codec ID/Hint : XviD
Duration : 43mn 23s
Bit rate : 1 635 Kbps
Width : 720 pixels
Height : 400 pixels
Display aspect ratio : 16:9
Frame rate : 25.000 fps
Color space : YUV
Chroma subsampling : 4:2:0
Bit depth : 8 bits
Scan type : Progressive
Compression mode : Lossy
Bits/(Pixel*Frame) : 0.227
Stream size : 507 MiB (92%)
Writing library : XviD 64
Audio
ID : 1
Format : MPEG Audio
Format version : Version 1
Format profile : Layer 3
Mode : Joint stereo
Codec ID : 55
Codec ID/Hint : MP3
Duration : 43mn 23s
Bit rate mode : Constant
Bit rate : 128 Kbps
Channel(s) : 2 channels
Sampling rate : 48.0 KHz
Compression mode : Lossy
Stream size : 39.7 MiB (7%)
Alignment : Aligned on interleaves
Interleave, duration : 40 ms (1.00 video frame)
Interleave, preload duration : 504 ms
General
Complete name : D:\Usloviya.kontrakta.(1-9.serii.iz.9).2011.XviD.DVDRip.[pirat.ca]\Usloviya.kontrakta.(3.serija.iz.9).2011.XviD.DVDRip.avi
Format : AVI
Format/Info : Audio Video Interleave
File size : 550 MiB
Duration : 45mn 44s
Overall bit rate : 1 681 Kbps
Writing application : VirtualDubMod 1.5.10.2 (build 2540/release)
Writing library : VirtualDubMod build 2540/release
Video
ID : 0
Format : MPEG-4 Visual
Format profile : Advanced [email protected]
Format settings, BVOP : 2
Format settings, QPel : No
Format settings, GMC : No warppoints
Format settings, Matrix : Default (MPEG)
Codec ID : XVID
Codec ID/Hint : XviD
Duration : 45mn 44s
Bit rate : 1 544 Kbps
Width : 720 pixels
Height : 400 pixels
Display aspect ratio : 16:9
Frame rate : 25.000 fps
Color space : YUV
Chroma subsampling : 4:2:0
Bit depth : 8 bits
Scan type : Progressive
Compression mode : Lossy
Bits/(Pixel*Frame) : 0.214
Stream size : 505 MiB (92%)
Writing library : XviD 64
Audio
ID : 1
Format : MPEG Audio
Format version : Version 1
Format profile : Layer 3
Mode : Joint stereo
Codec ID : 55
Codec ID/Hint : MP3
Duration : 45mn 44s
Bit rate mode : Constant
Bit rate : 128 Kbps
Channel(s) : 2 channels
Sampling rate : 48.0 KHz
Compression mode : Lossy
Stream size : 41.9 MiB (8%)
Alignment : Aligned on interleaves
Interleave, duration : 40 ms (1.00 video frame)
Interleave, preload duration : 504 ms
General
Complete name : D:\Usloviya.kontrakta.(1-9.serii.iz.9).2011.XviD.DVDRip.[pirat.ca]\Usloviya.kontrakta.(4.serija.iz.9).2011.XviD.DVDRip.avi
Format : AVI
Format/Info : Audio Video Interleave
File size : 550 MiB
Duration : 46mn 0s
Overall bit rate : 1 671 Kbps
Writing application : VirtualDubMod 1.5.10.2 (build 2540/release)
Writing library : VirtualDubMod build 2540/release
Video
ID : 0
Format : MPEG-4 Visual
Format profile : Advanced [email protected]
Format settings, BVOP : 2
Format settings, QPel : No
Format settings, GMC : No warppoints
Format settings, Matrix : Default (MPEG)
Codec ID : XVID
Codec ID/Hint : XviD
Duration : 46mn 0s
Bit rate : 1 534 Kbps
Width : 720 pixels
Height : 400 pixels
Display aspect ratio : 16:9
Frame rate : 25.000 fps
Color space : YUV
Chroma subsampling : 4:2:0
Bit depth : 8 bits
Scan type : Progressive
Compression mode : Lossy
Bits/(Pixel*Frame) : 0.213
Stream size : 505 MiB (92%)
Writing library : XviD 64
Audio
ID : 1
Format : MPEG Audio
Format version : Version 1
Format profile : Layer 3
Mode : Joint stereo
Codec ID : 55
Codec ID/Hint : MP3
Duration : 46mn 0s
Bit rate mode : Constant
Bit rate : 128 Kbps
Channel(s) : 2 channels
Sampling rate : 48.0 KHz
Compression mode : Lossy
Stream size : 42.1 MiB (8%)
Alignment : Aligned on interleaves
Interleave, duration : 40 ms (1.00 video frame)
Interleave, preload duration : 504 ms
General
Complete name : D:\Usloviya.kontrakta.(1-9.serii.iz.9).2011.XviD.DVDRip.[pirat.ca]\Usloviya.kontrakta.(5.serija.iz.9).2011.XviD.DVDRip.avi
Format : AVI
Format/Info : Audio Video Interleave
File size : 550 MiB
Duration : 43mn 4s
Overall bit rate : 1 785 Kbps
Writing application : VirtualDubMod 1.5.10.2 (build 2540/release)
Writing library : VirtualDubMod build 2540/release
Video
ID : 0
Format : MPEG-4 Visual
Format profile : Advanced [email protected]
Format settings, BVOP : 2
Format settings, QPel : No
Format settings, GMC : No warppoints
Format settings, Matrix : Default (MPEG)
Codec ID : XVID
Codec ID/Hint : XviD
Duration : 43mn 4s
Bit rate : 1 647 Kbps
Width : 720 pixels
Height : 400 pixels
Display aspect ratio : 16:9
Frame rate : 25.000 fps
Color space : YUV
Chroma subsampling : 4:2:0
Bit depth : 8 bits
Scan type : Progressive
Compression mode : Lossy
Bits/(Pixel*Frame) : 0.229
Stream size : 508 MiB (92%)
Writing library : XviD 64
Audio
ID : 1
Format : MPEG Audio
Format version : Version 1
Format profile : Layer 3
Mode : Joint stereo
Codec ID : 55
Codec ID/Hint : MP3
Duration : 43mn 4s
Bit rate mode : Constant
Bit rate : 128 Kbps
Channel(s) : 2 channels
Sampling rate : 48.0 KHz
Compression mode : Lossy
Stream size : 39.4 MiB (7%)
Alignment : Aligned on interleaves
Interleave, duration : 40 ms (1.00 video frame)
Interleave, preload duration : 504 ms
General
Complete name : D:\Usloviya.kontrakta.(1-9.serii.iz.9).2011.XviD.DVDRip.[pirat.ca]\Usloviya.kontrakta.(6.serija.iz.9).2011.XviD.DVDRip.avi
Format : AVI
Format/Info : Audio Video Interleave
File size : 550 MiB
Duration : 46mn 44s
Overall bit rate : 1 645 Kbps
Writing application : VirtualDubMod 1.5.10.2 (build 2540/release)
Writing library : VirtualDubMod build 2540/release
Video
ID : 0
Format : MPEG-4 Visual
Format profile : Advanced [email protected]
Format settings, BVOP : 2
Format settings, QPel : No
Format settings, GMC : No warppoints
Format settings, Matrix : Default (MPEG)
Codec ID : XVID
Codec ID/Hint : XviD
Duration : 46mn 44s
Bit rate : 1 508 Kbps
Width : 720 pixels
Height : 400 pixels
Display aspect ratio : 16:9
Frame rate : 25.000 fps
Color space : YUV
Chroma subsampling : 4:2:0
Bit depth : 8 bits
Scan type : Progressive
Compression mode : Lossy
Bits/(Pixel*Frame) : 0.209
Stream size : 504 MiB (92%)
Writing library : XviD 64
Audio
ID : 1
Format : MPEG Audio
Format version : Version 1
Format profile : Layer 3
Mode : Joint stereo
Codec ID : 55
Codec ID/Hint : MP3
Duration : 46mn 44s
Bit rate mode : Constant
Bit rate : 128 Kbps
Channel(s) : 2 channels
Sampling rate : 48.0 KHz
Compression mode : Lossy
Stream size : 42.8 MiB (8%)
Alignment : Aligned on interleaves
Interleave, duration : 40 ms (1.00 video frame)
Interleave, preload duration : 504 ms
General
Complete name : D:\Usloviya.kontrakta.(1-9.serii.iz.9).2011.XviD.DVDRip.[pirat.ca]\Usloviya.kontrakta.(7.serija.iz.9).2011.XviD.DVDRip.avi
Format : AVI
Format/Info : Audio Video Interleave
File size : 550 MiB
Duration : 46mn 12s
Overall bit rate : 1 664 Kbps
Writing application : VirtualDubMod 1.5.10.2 (build 2540/release)
Writing library : VirtualDubMod build 2540/release
Video
ID : 0
Format : MPEG-4 Visual
Format profile : Advanced [email protected]
Format settings, BVOP : 2
Format settings, QPel : No
Format settings, GMC : No warppoints
Format settings, Matrix : Default (MPEG)
Codec ID : XVID
Codec ID/Hint : XviD
Duration : 46mn 12s
Bit rate : 1 526 Kbps
Width : 720 pixels
Height : 400 pixels
Display aspect ratio : 16:9
Frame rate : 25.000 fps
Color space : YUV
Chroma subsampling : 4:2:0
Bit depth : 8 bits
Scan type : Progressive
Compression mode : Lossy
Bits/(Pixel*Frame) : 0.212
Stream size : 504 MiB (92%)
Writing library : XviD 64
Audio
ID : 1
Format : MPEG Audio
Format version : Version 1
Format profile : Layer 3
Mode : Joint stereo
Codec ID : 55
Codec ID/Hint : MP3
Duration : 46mn 12s
Bit rate mode : Constant
Bit rate : 128 Kbps
Channel(s) : 2 channels
Sampling rate : 48.0 KHz
Compression mode : Lossy
Stream size : 42.3 MiB (8%)
Alignment : Aligned on interleaves
Interleave, duration : 40 ms (1.00 video frame)
Interleave, preload duration : 504 ms
General
Complete name : D:\Usloviya.kontrakta.(1-9.serii.iz.9).2011.XviD.DVDRip.[pirat.ca]\Usloviya.kontrakta.(8.serija.iz.9).2011.XviD.DVDRip.avi
Format : AVI
Format/Info : Audio Video Interleave
File size : 550 MiB
Duration : 46mn 11s
Overall bit rate : 1 664 Kbps
Writing application : VirtualDubMod 1.5.10.2 (build 2540/release)
Writing library : VirtualDubMod build 2540/release
Video
ID : 0
Format : MPEG-4 Visual
Format profile : Advanced [email protected]
Format settings, BVOP : 2
Format settings, QPel : No
Format settings, GMC : No warppoints
Format settings, Matrix : Default (MPEG)
Codec ID : XVID
Codec ID/Hint : XviD
Duration : 46mn 11s
Bit rate : 1 527 Kbps
Width : 720 pixels
Height : 400 pixels
Display aspect ratio : 16:9
Frame rate : 25.000 fps
Color space : YUV
Chroma subsampling : 4:2:0
Bit depth : 8 bits
Scan type : Progressive
Compression mode : Lossy
Bits/(Pixel*Frame) : 0.212
Stream size : 504 MiB (92%)
Writing library : XviD 64
Audio
ID : 1
Format : MPEG Audio
Format version : Version 1
Format profile : Layer 3
Mode : Joint stereo
Codec ID : 55
Codec ID/Hint : MP3
Duration : 46mn 11s
Bit rate mode : Constant
Bit rate : 128 Kbps
Channel(s) : 2 channels
Sampling rate : 48.0 KHz
Compression mode : Lossy
Stream size : 42.3 MiB (8%)
Alignment : Aligned on interleaves
Interleave, duration : 40 ms (1.00 video frame)
Interleave, preload duration : 504 ms
General
Complete name : D:\Usloviya.kontrakta.(1-9.serii.iz.9).2011.XviD.DVDRip.[pirat.ca]\Usloviya.kontrakta.(9.serija.iz.9).2011.XviD.DVDRip.avi
Format : AVI
Format/Info : Audio Video Interleave
File size : 550 MiB
Duration : 44mn 12s
Overall bit rate : 1 740 Kbps
Writing application : VirtualDubMod 1.5.10.2 (build 2540/release)
Writing library : VirtualDubMod build 2540/release
Video
ID : 0
Format : MPEG-4 Visual
Format profile : Advanced [email protected]
Format settings, BVOP : 2
Format settings, QPel : No
Format settings, GMC : No warppoints
Format settings, Matrix : Default (MPEG)
Codec ID : XVID
Codec ID/Hint : XviD
Duration : 44mn 12s
Bit rate : 1 602 Kbps
Width : 720 pixels
Height : 400 pixels
Display aspect ratio : 16:9
Frame rate : 25.000 fps
Color space : YUV
Chroma subsampling : 4:2:0
Bit depth : 8 bits
Scan type : Progressive
Compression mode : Lossy
Bits/(Pixel*Frame) : 0.222
Stream size : 506 MiB (92%)
Writing library : XviD 64
Audio
ID : 1
Format : MPEG Audio
Format version : Version 1
Format profile : Layer 3
Mode : Joint stereo
Codec ID : 55
Codec ID/Hint : MP3
Duration : 44mn 12s
Bit rate mode : Constant
Bit rate : 128 Kbps
Channel(s) : 2 channels
Sampling rate : 48.0 KHz
Compression mode : Lossy
Stream size : 40.5 MiB (7%)
Alignment : Aligned on interleaves
Interleave, duration : 40 ms (1.00 video frame)
Interleave, preload duration : 504 ms




Download / Скачать

Хотите скачать бесплатно? Зарегистрируйтесь на сайте (ссылка на регистрацию). Pirat.ca - самый быстрый торрент трекер в рунете!

Как скачивать  ·   Что такое торрент  ·   Рейтинг и ограничения



Последний раз редактировалось: Znoi (2011-12-14 11:17), всего редактировалось 1 раз

Пост 14-Дек-2011 04:02 (спустя 8 часов)

Топик был перенесен из форума Сериалы в форум Отечественные сериалы

gEmOkPaT
 

oktopusas

Лоцман

Пост 18-Дек-2011 14:20 (спустя 4 дня)

[Q] 

судя по описанию, редкостный бред...
[Профиль]  [ЛС] 

abc7

Гроза морей

464

Пост 05-Янв-2012 13:36 (спустя 17 дней)

[Q] 

oktopusas, Зря Вы так, посмотрите сначала, а потом критикуйте..... да кстати, скорости добавить можно???
[Профиль]  [ЛС] 

Znoi ®

Флибустьер

1163

Пост 05-Янв-2012 15:47 (спустя 2 часа 11 минут)

[Q] 

[Профиль]  [ЛС] 

abc7

Гроза морей

464

Пост 14-Янв-2012 13:58 (спустя 8 дней)

[Q] 

Znoi, скорость судя по скрину хороша. Собственно так же как сам сериал.
[Профиль]  [ЛС] 

sdds

Лоцман

Пост 20-Янв-2012 14:42 (спустя 6 дней)

[Q] 

Спасибо
[Профиль]  [ЛС] 

yano4ka

Шкипер

Пост 29-Янв-2012 20:27 (спустя 9 дней)

[Q] 

мыльная опера.......
[Профиль]  [ЛС] 

abc7

Гроза морей

464

Пост 04-Фев-2012 19:29 (спустя 5 дней)

[Q] 

yano4ka, Категорически несогласен. Данный сериал даже не попадает в разряд "включить для фона"! Нет-нет да и посмотришь, что твориться с героями картины.
[Профиль]  [ЛС] 

lexx

Корсар

129

Пост 23-Фев-2012 23:42 (спустя 19 дней)

[Q] 

[Профиль]  [ЛС] 

h5n1

Гроза морей

483

Пост 02-Мар-2012 18:06 (спустя 7 дней)

[Q] 

походу

_________________
«Мы находимся здесь, чтобы внести свой вклад в этот мир. Иначе зачем мы здесь?» S.Jobs
[Профиль]  [ЛС] 

AnKra

Лоцман

Пост 31-Мар-2013 22:33 (спустя 1 год)

[Q] 

Классный сериал....
Сейчас ещё и продолжение выходит...-))
[Профиль]  [ЛС] 

CHARLI2236

1096

Пост 12-Сен-2013 12:44 (спустя 5 месяцев 11 дней)

[Q] 

подключусь AntiZip 15

_________________
[Профиль]  [ЛС] 
Показать сообщения:    
Ответить на тему

Текущее время: Сегодня 08:02

Часовой пояс: GMT + 4



Вы не можете начинать темы
Вы не можете отвечать на сообщения
Вы не можете редактировать свои сообщения
Вы не можете удалять свои сообщения
Вы не можете голосовать в опросах
Вы не можете прикреплять файлы к сообщениям
Вы не можете скачивать файлы

▼ Вниз