ML
     
  Уважаемый Гость!
Вы можете поддержать проект и зарегистрироваться у наших партнеров - онлайн-стратегия MyLands. При регистрации в игре Вы получите код, который сможете активировать после регистрации на pirat.ca и получить 1000 дублонов.

Ваш код:
8dcb839cf1b47e56d6dc42d17f26b3e4822e9aee
 
     

МосГаз Серии: 1-8 из 8 (Андрей Малюков) [2012 г., детектив, IPTVRip]

Ответить на тему
 
Автор
Сообщение

Пост 04-Ноя-2012 19:15

[Q] 

serg_bmw

Гроза морей

-МосГаз-- Производство: Россия, Русский Проект
Жанр: детектив
Год выпуска: 2012 г.
Продолжительность: 8x ~ 01:24:18
Российская премьера: 29 октября 2012
Режиссер: Андрей Малюков-В ролях: Анатолий Кузнецов, Марина Александрова, Агния Кузнецова, Андрей Смоляков, Светлана Ходченкова, Юрий Чурсин, Максим Матвеев, Александр Андриенко, Денис Курочка, Иван Оранский, Илья Бутковский, Александр Мякушко, Юрий Воробьев, Юрий Тарасов, Семен Трескунов, Андрей Якимов-Описание: 1962 год. Москва. Владимир Ионесян, по кличке Мосгаз, стал первым официально признанным серийным маньяком в Советском Союзе. Его кровавые деяния навсегда вошли в историю криминалистики, а его прозвищем мамы пугали детей. Представляясь работником Мосгаза, маньяк свободно проникал в квартиры людей, выбирал жертву и оценивал благосостояние хозяев квартир. Позже следствие докажет причастность Мосгаза к шести убийствам, в том числе на его совести четыре смерти несовершеннолетних граждан СССР. Мало кто знает, что все свои преступления Мосгаз посвятил юной артистке кордебалета. Он убивал с легкостью, словно играл роль. По приказу Хрущева на поимку серийного убийцы отводилось две недели. Приказ был выполнен в срок. Что двигало преступником: жажда наживы, несчастная любовь или болезненное стремление убивать?-
Качество видео: IPTVRip
Формат видео: AVI
Видео кодек: XviD
Аудио кодек: MP3
Видео: XviD, 25 fps, 720x384, 1860 Кбит/с
Аудио: MP3, 48 kHz, 2ch, 192 Кбит/с
Cубтитры: отсутствуют
Общее
Полное имя : 1 серия.avi
Формат : AVI
Формат/Информация : Audio Video Interleave
Размер файла : 1,22 Гбайт
Продолжительность : 1 ч. 24 м.
Общий поток : 2064 Кбит/сек
Программа кодирования : VirtualDubModRus 1.5.10.2 (build 2540/release)
Видео
Идентификатор : 0
Формат : MPEG-4 Visual
Профиль формата : Advanced [email protected]
Параметр BVOP формата : 1
Параметр QPel формата : Нет
Параметр GMC формата : Без точки перехода
Параметр матрицы формата : Default (H.263)
Идентификатор кодека : XVID
Идентификатор кодека/Подсказка : XviD
Продолжительность : 1 ч. 24 м.
Битрейт : 1862 Кбит/сек
Ширина : 720 пикселей
Высота : 384 пикселя
Соотношение сторон : 1,85:1
Частота кадров : 25,000 кадров/сек
Цветовое пространство : YUV
Субдискретизация насыщенности : 4:2:0
Битовая глубина : 8 бит
Тип развёртки : Прогрессивная
Метод сжатия : С потерями
Бит/(Пиксели*Кадры) : 0.269
Размер потока : 1,10 Гбайт (90%)
Библиотека кодирования : XviD 1.2.1 (UTC 2008-12-04)
Аудио
Идентификатор : 1
Формат : MPEG Audio
Версия формата : Version 1
Профиль формата : Layer 3
Идентификатор кодека : 55
Идентификатор кодека/Подсказка : MP3
Продолжительность : 1 ч. 24 м.
Вид битрейта : Постоянный
Битрейт : 192 Кбит/сек
Каналы : 2 канала
Частота : 48,0 КГц
Метод сжатия : С потерями
Размер потока : 116 Мбайт (9%)
Выравнивание : Соединение по промежуткам
Продолжительность промежутка : 40 мс. (1,00 видеокадр)
Время предзагрузки промежутка : 504 мс.
Библиотека кодирования : LAME3.98r
Настройки программы : -m s -V 4 -q 2 -lowpass 18.6 -b 192
Download / Скачать

Хотите скачать бесплатно? Зарегистрируйтесь на сайте (ссылка на регистрацию). Pirat.ca - самый быстрый торрент трекер в рунете!

Как скачивать  ·   Что такое торрент  ·   Рейтинг и ограничения

Пост 05-Ноя-2012 23:07 (спустя 1 день 3 часа)

Топик был перенесен из форума Отечественные сериалы (Трюм) в форум Отечественные сериалы

Андря
 

alex denver71

Флибустьер

Пост 17-Ноя-2014 18:34 (спустя 2 года)

[Q] 

Автору респект!!! смотрел сериал-на троечку. второй раз смотреть не стал бы bl
[Профиль]  [ЛС] 

mrdim-CHEHOV

Флибустьер

Пост 20-Янв-2015 16:23 (спустя 2 месяца 2 дня)

[Q] 

Кто здеся? ну вот...еще и нет никого на раздаче...

_________________
Все будет не так, как мы решим. Все будет тогда, когда мы решимся.
[Профиль]  [ЛС] 

ant32rus

Лоцман

Пост 21-Янв-2015 02:21 (спустя 9 часов)

[Q] 

вернитесь, я все прощу ...)
[Профиль]  [ЛС] 
Показать сообщения:    
Ответить на тему

Текущее время: Сегодня 04:16

Часовой пояс: GMT + 4



Вы не можете начинать темы
Вы не можете отвечать на сообщения
Вы не можете редактировать свои сообщения
Вы не можете удалять свои сообщения
Вы не можете голосовать в опросах
Вы не можете прикреплять файлы к сообщениям
Вы не можете скачивать файлы

▼ Вниз