ML
     
  Уважаемый Гость!
Вы можете поддержать проект и зарегистрироваться у наших партнеров - онлайн-стратегия MyLands. При регистрации в игре Вы получите код, который сможете активировать после регистрации на pirat.ca и получить 1000 дублонов.

Ваш код:
db0e0ad91548759ffeb9bb88bed405e1a4b3c165
 
     

Кадетство / Сезон: 2 / Серии: 1-50 (Валентин Козловский) [2007 г., Комедия, драма, семейный, DVD9]

Ответить на тему
 
Автор
Сообщение

Пост 05-Дек-2012 14:36

[Q] 

kuzya855

Штурман

-Кадетство / Сезон: 2 / Серии: 50 серий из 50 / 5 x DVD-9-- Производство: Киноконстанта
Жанр: комедия, семейный
Год выпуска: 2007 г.
Продолжительность: ~00:45:00 серия
Дата выхода DVD: 2007
Режиссер: Валентин Козловский-В ролях: Александр Головин, Павел Бессонов, Аристарх Венес, Борис Корчевников, Артем Терехов, Артур Сопельник, Кирилл Емельянов, Вадим Андреев, Валерий Баринов, Елена Захарова, Алина Колкер, Виталий Кудрявцев, Ирина Медведева, Сергей Плотников (II), Александр Пороховщиков, Дарья Соболева, Линда Табагари, Юлия Учиткина, Владимир Балдов, Сергей Жолобов, Владимир Стеклов, Виталий Абдулов, Виктория Алашеева, Егор Баринов, Владимир Белоусов (II), Светлана Варецкая, Фёдор Добронравов, Андрей Иванов (VI), Вероника Изотова, Элеонора Ильченко, Владимир Лаптев, Галина Лебедева, Ольга Лукьяненко, Елена Мольченко (Фатюшина), Александр Никулин, Владимир Павленко, Татьяна Пискарёва, Борис Полунин-Описание: Пролетело время, прошел первый год учебы в Суворовском, и даже половина второго… В училище тишина и покой – суворовцы на зимних каникулах. Нашим героям уже по 16 лет. Полтора года, проведенные в военном учреждении, дают о себе знать: вскоре мальчишки соберутся вместе, и мы увидим, что за это время они стали строже, подтянутей, грубее. О «сосах» отзываются с пренебрежением: «набрали, мол, мелкоту – одних хлюпиков!». К программе обучения добавились специальные предметы – военные. Но детство пока не собирается отступать, мальчишки по-прежнему готовы использовать любой предлог, чтобы подурачиться. Правда, шутить и разыгрывать преподавателей они теперь стараются изощреннее, «разводят» их по-взрослому. А ответственность за свои поступки только начинает осознаваться ребятами как признак мужественности и зрелости...-
Качество видео: DVD9
Формат видео: DVD Video
Формат DVD: PAL
Видео кодек: MPEG2
Аудио кодек: AC3
Видео: MPEG 2, [email protected] (4:3), 25.000 fps, 2021 Kbps (0.399 bit/pixel)
Аудио: AC3, 48.0 KHz, 2 ch, 192 Kbps, CBR
Cубтитры: отсутствуют
Title: Disk.3
Size: 7.25 Gb ( 7 605 094,00 KBytes ) - DVD-9
Enabled regions: 1, 2, 3, 4, 5, 6
VTS_01 :
Play Length: 00:00:05
Video: PAL 4:3 (720x576) VBR
VTS_02 :
Play Length: 00:00:11
Video: PAL 4:3 (720x576) VBR
Audio:
Not specified (Dolby AC3, 6 ch)
VTS_03 :
Play Length: 00:44:45
Video: PAL 4:3 (720x576) VBR
Audio:
Russian, AC3, 2/0 (L,R) ch, 192 kbps, Delay 0 mSec
VTS_04 :
Play Length: 00:44:47
Video: PAL 4:3 (720x576) VBR
Audio:
Russian, AC3, 2/0 (L,R) ch, 192 kbps, Delay 0 mSec
VTS_05 :
Play Length: 00:44:31
Video: PAL 4:3 (720x576) VBR
Audio:
Russian, AC3, 2/0 (L,R) ch, 192 kbps, Delay 0 mSec
VTS_06 :
Play Length: 00:45:09
Video: PAL 4:3 (720x576) VBR
Audio:
Russian (Dolby AC3, 2 ch)
VTS_07 :
Play Length: 00:44:41
Video: PAL 4:3 (720x576) VBR
Audio:
Russian, AC3, 2/0 (L,R) ch, 192 kbps, Delay 0 mSec
VTS_08 :
Play Length: 00:45:03
Video: PAL 4:3 (720x576) VBR
Audio:
Russian, AC3, 2/0 (L,R) ch, 192 kbps, Delay 0 mSec
VTS_09 :
Play Length: 00:45:06
Video: PAL 4:3 (720x576) VBR
Audio:
Russian, AC3, 2/0 (L,R) ch, 192 kbps, Delay 0 mSec
VTS_10 :
Play Length: 00:44:42
Video: PAL 4:3 (720x576) VBR
Audio:
Russian (Dolby AC3, 2 ch)
VTS_11 :
Play Length: 00:45:10
Video: PAL 4:3 (720x576) VBR
Audio:
Russian, AC3, 2/0 (L,R) ch, 192 kbps, Delay 0 mSec
VTS_12 :
Play Length: 00:44:34
Video: PAL 4:3 (720x576) VBR
Audio:
Russian (Dolby AC3, 2 ch)
Общее
Полное имя : Кадетство (2 сезон 1-50 серии из 50) 2007 РУ 5 x DVD-9\Disk.1\VIDEO_TS\VTS_01_0.VOB
Формат : MPEG-PS
Размер файла : 158 Мбайт
Продолжительность : 24 с.
Режим общего битрейта : Переменный
Общий поток : 55,1 Мбит/сек
Видео
Идентификатор : 224 (0xE0)
Формат : MPEG Video
Версия формата : Version 2
Профиль формата : [email protected]
Параметр BVOP формата : Да
Параметр матрицы формата : По умолчанию
Параметр GOP формата : M=3, N=12
Продолжительность : 24 с.
Вид битрейта : Переменный
Битрейт : 53,8 Мбит/сек
Максимальный битрейт : 8000 Кбит/сек
Ширина : 720 пикселей
Высота : 576 пикселей
Соотношение сторон : 4:3
Частота кадров : 25,000 кадров/сек
Стандарт вещания : PAL
Цветовое пространство : YUV
Субдискретизация насыщенности : 4:2:0
Битовая глубина : 8 бит
Тип развёртки : Прогрессивная
Метод сжатия : С потерями
Бит/(Пиксели*Кадры) : 5.187
Размер потока : 154 Мбайт (98%)
Основные цвета : BT.601 PAL
Характеристики трансфера : BT.470 System B, BT.470 System G
Коэффициенты матрицы : BT.601
Аудио
Идентификатор : 189 (0xBD)-128 (0x80)
Формат : AC-3
Формат/Информация : Audio Coding 3
Расширение режима : CM (complete main)
Параметр Endianness формата : Big
Режим смешивания : DVD-Video
Продолжительность : 23 с.
Вид битрейта : Постоянный
Битрейт : 192 Кбит/сек
Каналы : 2 канала
Расположение каналов : Front: L R
Частота : 48,0 КГц
Битовая глубина : 16 бит
Метод сжатия : С потерями
Размер потока : 562 Кбайт (0%)
Текст
Идентификатор : 189 (0xBD)-32 (0x20)
Формат : RLE
Формат/Информация : Run-length encoding
Режим смешивания : DVD-Video
Меню
Общее
Полное имя : Кадетство (2 сезон 1-50 серии из 50) 2007 РУ 5 x DVD-9\Disk.1\VIDEO_TS\VTS_06_1.VOB
Формат : MPEG-PS
Размер файла : 723 Мбайт
Продолжительность : 44 м.
Режим общего битрейта : Переменный
Общий поток : 2258 Кбит/сек
Видео
Идентификатор : 224 (0xE0)
Формат : MPEG Video
Версия формата : Version 2
Профиль формата : [email protected]
Параметр BVOP формата : Да
Параметр матрицы формата : Выборочная
Параметр GOP формата : Variable
Продолжительность : 44 м.
Вид битрейта : Переменный
Битрейт : 2021 Кбит/сек
Максимальный битрейт : 4000 Кбит/сек
Ширина : 352 пикселя
Высота : 576 пикселей
Соотношение сторон : 4:3
Частота кадров : 25,000 кадров/сек
Стандарт вещания : PAL
Цветовое пространство : YUV
Субдискретизация насыщенности : 4:2:0
Битовая глубина : 8 бит
Тип развёртки : Прогрессивная
Метод сжатия : С потерями
Бит/(Пиксели*Кадры) : 0.399
Размер потока : 647 Мбайт (90%)
Аудио
Идентификатор : 189 (0xBD)-128 (0x80)
Формат : AC-3
Формат/Информация : Audio Coding 3
Расширение режима : CM (complete main)
Параметр Endianness формата : Big
Режим смешивания : DVD-Video
Продолжительность : 44 м.
Вид битрейта : Постоянный
Битрейт : 192 Кбит/сек
Каналы : 2 канала
Расположение каналов : Front: L R
Частота : 48,0 КГц
Битовая глубина : 16 бит
Метод сжатия : С потерями
Размер потока : 61,4 Мбайт (9%)
Меню
Общее
Полное имя : Кадетство (2 сезон 1-50 серии из 50) 2007 РУ 5 x DVD-9\Disk.1\VIDEO_TS\VTS_03_1.VOB
Формат : MPEG-PS
Размер файла : 722 Мбайт
Продолжительность : 44 м.
Режим общего битрейта : Переменный
Общий поток : 2258 Кбит/сек
Видео
Идентификатор : 224 (0xE0)
Формат : MPEG Video
Версия формата : Version 2
Профиль формата : [email protected]
Параметр BVOP формата : Да
Параметр матрицы формата : Выборочная
Параметр GOP формата : Variable
Продолжительность : 44 м.
Вид битрейта : Переменный
Битрейт : 2021 Кбит/сек
Максимальный битрейт : 4000 Кбит/сек
Ширина : 352 пикселя
Высота : 576 пикселей
Соотношение сторон : 4:3
Частота кадров : 25,000 кадров/сек
Стандарт вещания : PAL
Цветовое пространство : YUV
Субдискретизация насыщенности : 4:2:0
Битовая глубина : 8 бит
Тип развёртки : Прогрессивная
Метод сжатия : С потерями
Бит/(Пиксели*Кадры) : 0.399
Размер потока : 647 Мбайт (90%)
Аудио
Идентификатор : 189 (0xBD)-128 (0x80)
Формат : AC-3
Формат/Информация : Audio Coding 3
Расширение режима : CM (complete main)
Параметр Endianness формата : Big
Режим смешивания : DVD-Video
Продолжительность : 44 м.
Вид битрейта : Постоянный
Битрейт : 192 Кбит/сек
Каналы : 2 канала
Расположение каналов : Front: L R
Частота : 48,0 КГц
Битовая глубина : 16 бит
Метод сжатия : С потерями
Размер потока : 61,4 Мбайт (9%)
Меню
Общее
Полное имя : Кадетство (2 сезон 1-50 серии из 50) 2007 РУ 5 x DVD-9\Disk.1\VIDEO_TS\VTS_03_1.VOB
Формат : MPEG-PS
Размер файла : 722 Мбайт
Продолжительность : 44 м.
Режим общего битрейта : Переменный
Общий поток : 2258 Кбит/сек
Видео
Идентификатор : 224 (0xE0)
Формат : MPEG Video
Версия формата : Version 2
Профиль формата : [email protected]
Параметр BVOP формата : Да
Параметр матрицы формата : Выборочная
Параметр GOP формата : Variable
Продолжительность : 44 м.
Вид битрейта : Переменный
Битрейт : 2021 Кбит/сек
Максимальный битрейт : 4000 Кбит/сек
Ширина : 352 пикселя
Высота : 576 пикселей
Соотношение сторон : 4:3
Частота кадров : 25,000 кадров/сек
Стандарт вещания : PAL
Цветовое пространство : YUV
Субдискретизация насыщенности : 4:2:0
Битовая глубина : 8 бит
Тип развёртки : Прогрессивная
Метод сжатия : С потерями
Бит/(Пиксели*Кадры) : 0.399
Размер потока : 647 Мбайт (90%)
Аудио
Идентификатор : 189 (0xBD)-128 (0x80)
Формат : AC-3
Формат/Информация : Audio Coding 3
Расширение режима : CM (complete main)
Параметр Endianness формата : Big
Режим смешивания : DVD-Video
Продолжительность : 44 м.
Вид битрейта : Постоянный
Битрейт : 192 Кбит/сек
Каналы : 2 канала
Расположение каналов : Front: L R
Частота : 48,0 КГц
Битовая глубина : 16 бит
Метод сжатия : С потерями
Размер потока : 61,4 Мбайт (9%)
Меню



Download / Скачать

Хотите скачать бесплатно? Зарегистрируйтесь на сайте (ссылка на регистрацию). Pirat.ca - самый быстрый торрент трекер в рунете!

Как скачивать  ·   Что такое торрент  ·   Рейтинг и ограничения



Последний раз редактировалось: kuzya855 (2012-12-06 16:43), всего редактировалось 12 раз(а)

Пост 07-Дек-2012 10:33 (спустя 1 день 19 часов)

Топик был перенесен из форума Отечественные сериалы (Трюм) в форум Отечественные сериалы

Андря
 

vovan200976

Флибустьер

Пост 07-Дек-2012 23:12 (спустя 2 дня 8 часов)

[Q] 

[Профиль]  [ЛС] 

kuzya855 ®

Штурман

61

Пост 08-Дек-2012 00:10 (спустя 58 минут)

[Q] 

ВЫКЛАДЫВАЮ 1-Й И 3-Й СЕЗОНЫ

_________________
Самая опасная спортивная игра - шахматы. Можно заснуть и упасть глазом на ферзя...!
[Профиль]  [ЛС] 
Показать сообщения:    
Ответить на тему

Текущее время: Сегодня 08:08

Часовой пояс: GMT + 4



Вы не можете начинать темы
Вы не можете отвечать на сообщения
Вы не можете редактировать свои сообщения
Вы не можете удалять свои сообщения
Вы не можете голосовать в опросах
Вы не можете прикреплять файлы к сообщениям
Вы не можете скачивать файлы

▼ Вниз