ML
     
  Уважаемый Гость!
Вы можете поддержать проект и зарегистрироваться у наших партнеров - онлайн-стратегия MyLands. При регистрации в игре Вы получите код, который сможете активировать после регистрации на pirat.ca и получить 1000 дублонов.

Ваш код:
73640f24f8a0f579e128ea7346fd2db2b1009143
 
     

Кадетство / Сезон: 1 / Серии: 1-40 (Сергей Арланов, Дмитрий Меднов, Валентин Козловский, Андрей Кудиненко) [2006 г., Комедия, драма, семейный, DVD9]

Ответить на тему
 
Автор
Сообщение

Пост 08-Дек-2012 00:17

[Q] 

kuzya855

Штурман

-Кадетство / Сезон: 1 / Серии: 40 серий из 40 / 8 x DVD-9-- Год выпуска: 2006
Производство: Канал СТС, Продюссерский цент
Жанр: Комедия, драма, семейный
Продолжительность:40 x ~ 00:44:22
Субтитры: нет
Режиссёр: Сергей Арланов, Дмитрий Меднов, Валентин Козловский, Андрей Кудиненко
В ролях: Александр Головин, Иван Добронравов, Артур Сопельник, Борис Корчевников, Кирилл Емельянов, Аристарх Венес, Павел Бессонов, Ольга Лукьяненко, Елена Захарова, Владимир Стеклов, Сергей Жолобов, Георгий Мартиросян, Александр Пороховщиков, Артем Терехов, Вадим Андреев, Вероника Изотова, Валерий Баринов, Виталий Абдулов, Федор Добронравов, Ирина Цывина, Владимир Лаптев, Светлана Варецкая, Сергей Плотников (II), Дарья Соболева, Владимир Павленко, Сергей Степин, Анна Михайловская, Галина Данилова, Митя Горевой, Валерия Ланская, Александр Любащенко
Описание: Мальчишки четырнадцати лет оказываются в Суворовском училище — кто-то благодаря семейной традиции, кто-то ради высоких идеалов, а кто-то даже не по собственной воле. Поступив в Суворовское, ребята поначалу не представляют всей степени нагрузки, а главное — ответственности, которая окажет глубокое влияние на их последующую жизнь. Издавна, начиная с 18 века, из стен кадетских корпусов выходили благородные офицеры, цвет нации, защитники Отечества, опора и гордость высшего общества, — это были элитные заведения, где всегда было почетно и очень трудно учиться. Но свою избранность наши суворовцы начинают осознавать не сразу. С первых дней офицеры-наставники приучают их к жестокому армейскому режиму во всем — от учебы до тренировок. «Школой выживания» называют военные обучение своих преемников. Постепенно суворовцам открываются негласные законы чести, глубина и непрерывность традиции, они становятся одной семьей, мужают, закаляя волю и характер.
Дополнительные материалы:
- Фильмографии актёров.
Награды:
- 2008. Кинонаграды «MTV-Россия»: Лучший сериал.
Номинации:
- 2008. Золотой орёл: Лучший телевизионный сериал (11 серий и более).
Киноляпы:
- В первой серии первого сезона мать Перепечко говорила генералу, что у Степана тройка по пению, так как учитель-алкаш придрался. Во второй серии Степан в столовой говорил: "Я вообще-то в школе на медаль шёл, а тут..."
- В одной из серии первого сезона сериала Ротмистров заходит в медпункт к Мариане Владимировне за справкой своему сыну Сырникову и представляется как Ротмистров Вадим Сергеевич, хотя в последующих сезонах он Вадим Юрьевич.
- Также в одной из серий первого сезона генерал-майор Матвеев у себя в кабинете называет подполковника Ковалева - Александр Михайлович. Подполковник Ковалев-Виктор Андреевич, а Александр Михайлович - это полковник Ноздрев.
- В первом сезоне Синицына отчисляют из училища, затем после отчисления и до своего восстановления в училище он на несколько секунд появляется в кадре на уроке физики во время ответа Перепечко (35-ая серия).
- В конце первого сезона Макаров выписался из больницы после аварии и у него рука была то в гипсе, то без гипса.
- В начале первого сезона, на построении, Ротмистрова объявляют офицером-воспитателем четветрого взвода, а на протяжении всех сезонов сериала он был офицером-воспитателем второго взвода.
- В первом сезоне Ротмистров зашел разбираться к Кантемирову за своего сына, за то, что Кантемиров заставлял его отжиматься на "дулях" и сказал: - "Что это у Вас за конфликт с суворовцем из четвертого взвода"? В первом сезоне и в первых сериях второго сезона Сырников был суворовцем второго взвода.
- В первой серии первого сезона врач-психиатр, который проверял будущих суворовцев перед поступлением и бывший муж Софьи Константиновны Романовой из третьего сезона один и тот же человек.
Качество: DVD9
Формат: DVD-Video
Видео кодек: MPEG2
Аудио кодек: AC3
Видео: MPEG 2, [email protected] (4:3), 25.000 fps, 2021 Kbps (0.399 bit/pixel)
Аудио: AC3, 48.0 KHz, 2 ch, 192 Kbps, CBR




Title: Disk.8
Size: 7.30 Gb ( 7 656 636,00 KBytes ) - DVD-9
Enabled regions: 1, 2, 3, 4, 5, 6, 8
VTS_01 :
Play Length: 00:44:43+00:44:38+00:44:37+00:44:54+00:44:59
Video: PAL 4:3 (720x576) VBR
Audio:
Russian, AC3, 3/2 (L,C,R,SL,SR)+LFE ch, 448 kbps, Delay 0 mSec
* Menus Information *
VIDEO_TS Menu
Video:
PAL 4:3 (720x576) VBR
Audio:
Not specified (Dolby AC3, 2 ch)
English Language Unit :
Title Menu
VTS_01 Menu
Video:
PAL 4:3 (720x576) VBR
Audio:
Not specified (Dolby AC3, 2 ch)
English Language Unit :
Root Menu
* Menus Information *
VIDEO_TS Menu
Video:
PAL 4:3 (720x576) VBR
Audio:
Not specified (Dolby AC3, 2 ch)
Russian Language Unit :
Title Menu
VTS_01 Menu
Video:
PAL 4:3 (720x576) VBR
Audio:
Not specified (Dolby AC3, 2 ch)
Russian Language Unit :
Root Menu
Chapter (PTT) Menu
VTS_02 Menu
Video:
NTSC 4:3 (720x480) VBR
Auto Pan&Scan, Auto Letterboxed
Language Unit :
Subpicture Menu
Angle menu
Language Unit :
Root Menu
Language Unit :
Root Menu
Language Unit :
Root Menu
Language Unit :
Root Menu
Общее
Полное имя : Kadetstvo.1.sezon.40.serij.iz.40.2006.8xDVD-9\Disk.1\VIDEO_TS\VIDEO_TS.BUP
Формат : DVD Video
Профиль формата : Menu
Размер файла : 12,0 Кбайт
Режим общего битрейта : Переменный
Видео
Идентификатор : 224 (0xE0)
Формат : MPEG Video
Версия формата : Version 2
Вид битрейта : Переменный
Ширина : 720 пикселей
Высота : 576 пикселей
Соотношение сторон : 4:3
Частота кадров : 25,000 кадров/сек
Стандарт вещания : PAL
Метод сжатия : С потерями
Аудио
Формат : AC-3
Формат/Информация : Audio Coding 3
Каналы : 2 канала
Частота : 48,0 КГц
Метод сжатия : С потерями
Текст
Формат : RLE
Формат/Информация : Run-length encoding
Битовая глубина : 2 бит
Общее
Полное имя : \Kadetstvo.1.sezon.40.serij.iz.40.2006.8xDVD-9\Disk.1\VIDEO_TS\VIDEO_TS.IFO
Формат : DVD Video
Профиль формата : Menu
Размер файла : 12,0 Кбайт
Режим общего битрейта : Переменный
Видео
Идентификатор : 224 (0xE0)
Формат : MPEG Video
Версия формата : Version 2
Вид битрейта : Переменный
Ширина : 720 пикселей
Высота : 576 пикселей
Соотношение сторон : 4:3
Частота кадров : 25,000 кадров/сек
Стандарт вещания : PAL
Метод сжатия : С потерями
Аудио
Формат : AC-3
Формат/Информация : Audio Coding 3
Каналы : 2 канала
Частота : 48,0 КГц
Метод сжатия : С потерями
Текст
Формат : RLE
Формат/Информация : Run-length encoding
Битовая глубина : 2 бит
Общее
Полное имя : Kadetstvo.1.sezon.40.serij.iz.40.2006.8xDVD-9\Disk.1\VIDEO_TS\VIDEO_TS.VOB
Формат : MPEG-PS
Размер файла : 15,0 Мбайт
Продолжительность : 24 с.
Режим общего битрейта : Переменный
Общий поток : 5228 Кбит/сек
Видео
Идентификатор : 224 (0xE0)
Формат : MPEG Video
Версия формата : Version 2
Профиль формата : [email protected]
Параметр BVOP формата : Да
Параметр матрицы формата : По умолчанию
Параметр GOP формата : M=3, N=12
Продолжительность : 24 с.
Вид битрейта : Переменный
Битрейт : 4932 Кбит/сек
Максимальный битрейт : 7000 Кбит/сек
Ширина : 720 пикселей
Высота : 576 пикселей
Соотношение сторон : 4:3
Частота кадров : 25,000 кадров/сек
Стандарт вещания : PAL
Цветовое пространство : YUV
Субдискретизация насыщенности : 4:2:0
Битовая глубина : 8 бит
Тип развёртки : Прогрессивная
Порядок развёртки : Нижнее поле первое
Метод сжатия : С потерями
Бит/(Пиксели*Кадры) : 0.476
Размер потока : 14,1 Мбайт (94%)
Основные цвета : BT.601 PAL
Характеристики трансфера : BT.470 System B, BT.470 System G
Коэффициенты матрицы : BT.601
Аудио
Идентификатор : 189 (0xBD)-128 (0x80)
Формат : AC-3
Формат/Информация : Audio Coding 3
Расширение режима : CM (complete main)
Параметр Endianness формата : Big
Режим смешивания : DVD-Video
Продолжительность : 23 с.
Вид битрейта : Постоянный
Битрейт : 192 Кбит/сек
Каналы : 2 канала
Расположение каналов : Front: L R
Частота : 48,0 КГц
Битовая глубина : 16 бит
Метод сжатия : С потерями
Размер потока : 561 Кбайт (4%)
Текст
Идентификатор : 189 (0xBD)-32 (0x20)
Формат : RLE
Формат/Информация : Run-length encoding
Режим смешивания : DVD-Video
Меню
Общее
Полное имя : Kadetstvo.1.sezon.40.serij.iz.40.2006.8xDVD-9\Disk.1\VIDEO_TS\VTS_01_0.BUP
Формат : DVD Video
Профиль формата : Program
Размер файла : 132 Кбайт
Продолжительность : 44 м.
Режим общего битрейта : Переменный
Общий поток : 405 бит/сек
Видео
Идентификатор : 224 (0xE0)
Формат : MPEG Video
Версия формата : Version 2
Продолжительность : 44 м.
Вид битрейта : Переменный
Ширина : 720 пикселей
Высота : 576 пикселей
Соотношение сторон : 4:3
Частота кадров : 25,000 кадров/сек
Стандарт вещания : PAL
Метод сжатия : С потерями
Аудио
Идентификатор : 128 (0x80)
Формат : AC-3
Формат/Информация : Audio Coding 3
Продолжительность : 44 м.
Каналы : 6 каналов
Частота : 48,0 КГц
Метод сжатия : С потерями
Язык : Russian
Меню #1
Продолжительность : 44 м.
00:00:00.000 : Chapter 1
00:09:54.000 : Chapter 2
00:19:55.200 : Chapter 3
00:30:09.600 : Chapter 4
List (Audio) : 0
Меню #2
Продолжительность : 44 м.
00:00:00.000 : Chapter 1
00:12:04.800 : Chapter 2
00:20:13.800 : Chapter 3
00:30:56.400 : Chapter 4
List (Audio) : 0
Меню #3
Продолжительность : 44 м.
00:00:00.000 : Chapter 1
00:10:52.800 : Chapter 2
00:20:08.400 : Chapter 3
00:28:51.000 : Chapter 4
List (Audio) : 0
Меню #4
Продолжительность : 44 м.
00:00:00.000 : Chapter 1
00:10:58.200 : Chapter 2
00:20:16.200 : Chapter 3
00:30:21.600 : Chapter 4
List (Audio) : 0
Меню #5
Продолжительность : 44 м.
00:00:00.000 : Chapter 1
00:11:43.240 : Chapter 2
00:20:49.560 : Chapter 3
00:31:09.680 : Chapter 4
List (Audio) : 0
Общее
Полное имя : Kadetstvo.1.sezon.40.serij.iz.40.2006.8xDVD-9\Disk.1\VIDEO_TS\VTS_01_0.IFO
Формат : DVD Video
Профиль формата : Program
Размер файла : 132 Кбайт
Продолжительность : 44 м.
Режим общего битрейта : Переменный
Общий поток : 405 бит/сек
Видео
Идентификатор : 224 (0xE0)
Формат : MPEG Video
Версия формата : Version 2
Продолжительность : 44 м.
Вид битрейта : Переменный
Ширина : 720 пикселей
Высота : 576 пикселей
Соотношение сторон : 4:3
Частота кадров : 25,000 кадров/сек
Стандарт вещания : PAL
Метод сжатия : С потерями
Аудио
Идентификатор : 128 (0x80)
Формат : AC-3
Формат/Информация : Audio Coding 3
Продолжительность : 44 м.
Каналы : 6 каналов
Частота : 48,0 КГц
Метод сжатия : С потерями
Язык : Russian
Меню #1
Продолжительность : 44 м.
00:00:00.000 : Chapter 1
00:09:54.000 : Chapter 2
00:19:55.200 : Chapter 3
00:30:09.600 : Chapter 4
List (Audio) : 0
Меню #2
Продолжительность : 44 м.
00:00:00.000 : Chapter 1
00:12:04.800 : Chapter 2
00:20:13.800 : Chapter 3
00:30:56.400 : Chapter 4
List (Audio) : 0
Меню #3
Продолжительность : 44 м.
00:00:00.000 : Chapter 1
00:10:52.800 : Chapter 2
00:20:08.400 : Chapter 3
00:28:51.000 : Chapter 4
List (Audio) : 0
Меню #4
Продолжительность : 44 м.
00:00:00.000 : Chapter 1
00:10:58.200 : Chapter 2
00:20:16.200 : Chapter 3
00:30:21.600 : Chapter 4
List (Audio) : 0
Меню #5
Продолжительность : 44 м.
00:00:00.000 : Chapter 1
00:11:43.240 : Chapter 2
00:20:49.560 : Chapter 3
00:31:09.680 : Chapter 4
List (Audio) : 0
Общее
Полное имя : I:\ВИДЕО VOB\Kadetstvo.1.sezon.40.serij.iz.40.2006.8xDVD-9\Disk.1\VIDEO_TS\VTS_01_0.VOB
Формат : MPEG-PS
Размер файла : 112 Мбайт
Продолжительность : 24 с.
Режим общего битрейта : Переменный
Общий поток : 39,1 Мбит/сек
Видео
Идентификатор : 224 (0xE0)
Формат : MPEG Video
Версия формата : Version 2
Профиль формата : [email protected]
Параметр BVOP формата : Да
Параметр матрицы формата : По умолчанию
Параметр GOP формата : M=3, N=12
Продолжительность : 24 с.
Вид битрейта : Переменный
Битрейт : 38,2 Мбит/сек
Максимальный битрейт : 7000 Кбит/сек
Ширина : 720 пикселей
Высота : 576 пикселей
Соотношение сторон : 4:3
Частота кадров : 25,000 кадров/сек
Стандарт вещания : PAL
Цветовое пространство : YUV
Субдискретизация насыщенности : 4:2:0
Битовая глубина : 8 бит
Тип развёртки : Прогрессивная
Порядок развёртки : Нижнее поле первое
Метод сжатия : С потерями
Бит/(Пиксели*Кадры) : 3.681
Размер потока : 109 Мбайт (98%)
Основные цвета : BT.601 PAL
Характеристики трансфера : BT.470 System B, BT.470 System G
Коэффициенты матрицы : BT.601
Аудио
Идентификатор : 189 (0xBD)-128 (0x80)
Формат : AC-3
Формат/Информация : Audio Coding 3
Расширение режима : CM (complete main)
Параметр Endianness формата : Big
Режим смешивания : DVD-Video
Продолжительность : 23 с.
Вид битрейта : Постоянный
Битрейт : 192 Кбит/сек
Каналы : 2 канала
Расположение каналов : Front: L R
Частота : 48,0 КГц
Битовая глубина : 16 бит
Метод сжатия : С потерями
Размер потока : 561 Кбайт (0%)
Текст
Идентификатор : 189 (0xBD)-32 (0x20)
Формат : RLE
Формат/Информация : Run-length encoding
Режим смешивания : DVD-Video
Меню
Общее
Полное имя : Kadetstvo.1.sezon.40.serij.iz.40.2006.8xDVD-9\Disk.1\VIDEO_TS\VTS_01_1.VOB
Формат : MPEG-PS
Размер файла : 1024 Мбайт
Продолжительность : 41 м.
Режим общего битрейта : Переменный
Общий поток : 3426 Кбит/сек
Видео
Идентификатор : 224 (0xE0)
Формат : MPEG Video
Версия формата : Version 2
Профиль формата : [email protected]
Параметр BVOP формата : Да
Параметр матрицы формата : Выборочная
Параметр GOP формата : M=3, N=15
Продолжительность : 41 м.
Вид битрейта : Переменный
Битрейт : 2910 Кбит/сек
Максимальный битрейт : 7000 Кбит/сек
Ширина : 720 пикселей
Высота : 576 пикселей
Соотношение сторон : 4:3
Частота кадров : 25,000 кадров/сек
Стандарт вещания : PAL
Цветовое пространство : YUV
Субдискретизация насыщенности : 4:2:0
Битовая глубина : 8 бит
Тип развёртки : Чересстрочная
Порядок развёртки : Верхнее поле первое
Метод сжатия : С потерями
Бит/(Пиксели*Кадры) : 0.281
Размер потока : 870 Мбайт (85%)
Аудио
Идентификатор : 189 (0xBD)-128 (0x80)
Формат : AC-3
Формат/Информация : Audio Coding 3
Расширение режима : CM (complete main)
Параметр Endianness формата : Big
Режим смешивания : DVD-Video
Продолжительность : 41 м.
Вид битрейта : Постоянный
Битрейт : 448 Кбит/сек
Каналы : 6 каналов
Расположение каналов : Front: L C R, Side: L R, LFE
Частота : 48,0 КГц
Битовая глубина : 16 бит
Метод сжатия : С потерями
Задержка видео : -80 мс.
Размер потока : 134 Мбайт (13%)
Download / Скачать

Хотите скачать бесплатно? Зарегистрируйтесь на сайте (ссылка на регистрацию). Pirat.ca - самый быстрый торрент трекер в рунете!

Как скачивать  ·   Что такое торрент  ·   Рейтинг и ограничения



Последний раз редактировалось: kuzya855 (2012-12-12 00:02), всего редактировалось 1 раз

Пост 24-Дек-2012 14:30 (спустя 16 дней)

Топик был перенесен из форума Отечественные сериалы (Трюм) в форум Отечественные сериалы

Андря
 
Показать сообщения:    
Ответить на тему

Текущее время: Сегодня 22:37

Часовой пояс: GMT + 4



Вы не можете начинать темы
Вы не можете отвечать на сообщения
Вы не можете редактировать свои сообщения
Вы не можете удалять свои сообщения
Вы не можете голосовать в опросах
Вы не можете прикреплять файлы к сообщениям
Вы не можете скачивать файлы

▼ Вниз