ML
     
  Уважаемый Гость!
Вы можете поддержать проект и зарегистрироваться у наших партнеров - онлайн-стратегия MyLands. При регистрации в игре Вы получите код, который сможете активировать после регистрации на pirat.ca и получить 1000 дублонов.

Ваш код:
fe4e93b754a7c2b306fcfc8bc32532ea1cf59d3b
 
     

Братство десанта / Сезон: 1 / Серии: 1-16 из 16 (Арменак Назикян, Виктор Татарский (II)) [2012 г., криминальный фильм, SATRip, 720p]

Ответить на тему
 
Автор
Сообщение

Пост 19-Дек-2012 02:21

[Q] 

Rusliln

Штурман

-Братство десанта-- Производство: Триикс Медиа
Жанр: криминальный фильм
Год выпуска: 2012 г.
Продолжительность: ~00:50:00
Российская премьера: 10 декабря 2012
Режиссер: Арменак Назикян, Виктор Татарский (II)-В ролях: Сергей Горобченко, Максим Коновалов, Егор Пазенко, Фархад Махмудов, Михаил Полосухин, Кирилл Полухин, Сергей Рублёв, Ян Цапник, Алексей Осипов (II), Анатолий Кот, Екатерина Проскурина, Сергей Колос, Игорь Михайлов (IV), Никита Морозов, Роман Жилкин, Алексей Красноцветов, Константин Фисенко, Виталий Кудрявцев, Сергей Евдокимов, Сергей Воробьёв (IV), Михаил Сидаш, Евгений Евдокимов и др.-Описание: Группа российских десантников вступает в бой с боевиками, укрывшимися в небольшой горной деревушке. Боевики уничтожены, но Артур Глебов – один из десанткниов – вдруг открывает огонь по мирным жителям, обвинив их в пособничестве бандитам.
…Прошли годы. Жизнь развела бывших однополчан. Кто-то стал врачом, кто-то строителем, кто-то полицейским, а кто-то кримнальным авторитетом. Майор полиции Демин, переживающий сложный развод с женой, случайно выходит на след террористов и арестовывает их лидера Анвара. Преступника забирают к себе сотрудники ФСБ, один из которых, как выясняется, встречается с бывшей женой Демина.
А вскоре в городе появляется считавшийся погибшим Глебов. Он знает все о бывших однополчанах и вовлекает их в страшную и опасную игру. Те, кто отказываются играть по его правилам, или совершили ошибку, погибают.-Качество видео: SATRip
Формат видео: AVI
Видео кодек: XviD
Аудио кодек: MP3
Видео: ~1559 Кбит/сек, 720х400, 16:9, 25,000 кадров/сек, 8 бит, 0.217 Бит/Пиксел
Аудио: MPEG Audio Layer 3, 192 Кбит/сек, 2 канала, 48,0 КГц
Cубтитры: отсутствуют
Общее
Полное имя : Bratstvo.desanta.(01.seriya).2012.SATRip.GfneralFilm.avi
Формат : AVI
Формат/Информация : Audio Video Interleave
Размер файла : 640 Мбайт
Продолжительность : 50 м.
Общий поток : 1761 Кбит/сек
Программа кодирования : VirtualDubMod 1.5.10.3 | www.virtualdub-fr.org || (build 2550/release)
Библиотека кодирования : Boilsoft AVI tool build 1/release
Видео
Идентификатор : 0
Формат : MPEG-4 Visual
Профиль формата : Advanced [email protected]
Параметр BVOP формата : 2
Параметр QPel формата : Нет
Параметр GMC формата : Без точки перехода
Параметр матрицы формата : Выборочная
Идентификатор кодека : XVID
Идентификатор кодека/Подсказка : XviD
Продолжительность : 50 м.
Битрейт : 1559 Кбит/сек
Ширина : 720 пикселей
Высота : 400 пикселей
Соотношение сторон : 16:9
Частота кадров : 25,000 кадров/сек
Цветовое пространство : YUV
Субдискретизация насыщенности : 4:2:0
Битовая глубина : 8 бит
Тип развёртки : Прогрессивная
Метод сжатия : С потерями
Бит/(Пиксели*Кадры) : 0.217
Размер потока : 566 Мбайт (89%)
Библиотека кодирования : XviD 1.2.1 (UTC 2008-12-04)
Аудио
Идентификатор : 1
Формат : MPEG Audio
Версия формата : Version 1
Профиль формата : Layer 3
Режим : Joint stereo
Расширение режима : MS Stereo
Идентификатор кодека : 55
Идентификатор кодека/Подсказка : MP3
Продолжительность : 50 м.
Вид битрейта : Постоянный
Битрейт : 192 Кбит/сек
Каналы : 2 канала
Частота : 48,0 КГц
Метод сжатия : С потерями
Размер потока : 69,7 Мбайт (11%)
Выравнивание : Соединение по промежуткам
Продолжительность промежутка : 40 мс. (1,00 видеокадр)
Время предзагрузки промежутка : 504 мс.
Библиотека кодирования : LAME3.98r
Настройки программы : -m j -V 4 -q 2 -lowpass 18.6 -b 192


Download / Скачать

Хотите скачать бесплатно? Зарегистрируйтесь на сайте (ссылка на регистрацию). Pirat.ca - самый быстрый торрент трекер в рунете!

Как скачивать  ·   Что такое торрент  ·   Рейтинг и ограничения



Последний раз редактировалось: Rusliln (2012-12-20 22:00), всего редактировалось 8 раз(а)

h5n1

Гроза морей

483

Пост 19-Дек-2012 06:43 (спустя 4 часа)

[Q] 

чот я первую серию с трудом досмотрел, дальше то интересно хоть?Г

_________________
«Мы находимся здесь, чтобы внести свой вклад в этот мир. Иначе зачем мы здесь?» S.Jobs
[Профиль]  [ЛС] 

Rusliln ®

Штурман

33

Пост 19-Дек-2012 07:36 (спустя 53 минуты)

[Q] 

Очень интересно
[Профиль]  [ЛС] 

Пост 21-Дек-2012 01:35 (спустя 1 день 17 часов)

Топик был перенесен из форума Сериалы в эфире в форум Отечественные сериалы

Андря
 

egismac

Гроза морей

Пост 22-Дек-2012 02:40 (спустя 2 дня 19 часов)

[Q] 

Спасибо, посмотрим.
[Профиль]  [ЛС] 

UA4HQW

Флибустьер

2528

Пост 29-Дек-2012 01:25 (спустя 6 дней)

[Q] 

Столько "ляпов" ! Ожидал лучшего. Зря время потерял!
[Профиль]  [ЛС] 

ss80

Флибустьер

36

Пост 10-Янв-2013 23:04 (спустя 12 дней)

[Q] 

[Профиль]  [ЛС] 

Korcha40

Морской Волк

Пост 09-Мар-2014 23:53 (спустя 1 год 1 месяц)

[Q] 

раньше не смотрел ! захватил серий 8 с конца ! интересно было чем кончится ! просто не реальный шлак ! косяк на косяке ! тупые действия тупых персонажей ! водка реально не помогла ! тупые схемы -тексты и остальное ! пяток последних серий десантники вообще ни куда ни попали когда стреляли !по жизни зольдаты стали крутым пластическим хирургом далее крутым бандосом (реально ) мусором в звании майора и крутым бизнесменом !а в реальности просто бы спились !!!!слов на букву Г не хватает ! Отказать
[Профиль]  [ЛС] 
Показать сообщения:    
Ответить на тему

Текущее время: Сегодня 14:32

Часовой пояс: GMT + 4



Вы не можете начинать темы
Вы не можете отвечать на сообщения
Вы не можете редактировать свои сообщения
Вы не можете удалять свои сообщения
Вы не можете голосовать в опросах
Вы не можете прикреплять файлы к сообщениям
Вы не можете скачивать файлы

▼ Вниз