ML
     
  Уважаемый Гость!
Вы можете поддержать проект и зарегистрироваться у наших партнеров - онлайн-стратегия MyLands. При регистрации в игре Вы получите код, который сможете активировать после регистрации на pirat.ca и получить 1000 дублонов.

Ваш код:
e6008d9811a0b6a1393c3dc51ecd7bc35637bc21
 
     

Посредник / Грач / Сезон: 1 / Серии: 1 - 12 из 12 (Андрей Волгин, Максим Кондратенко) [2012 г., триллер, детектив, SATRip]

Ответить на тему
 
Автор
Сообщение

Пост 15-Янв-2013 17:40

[Q] 

cergo

Гроза морей

-Посредник <<<Грач>>>-- Производство: Россия
Жанр: триллер, детектив
Год выпуска: 2012 г.
Продолжительность: 00:52:00 х 12 (624 мин.)
Режиссер: Андрей Волгин, Максим Кондратенко
-В ролях: Павел Трубинер, Светлана Иванова, Игорь Старосельцев, Алексей Лонгин, Наталья Иванова-Фенкина, Вадим Демчог, Иван Охлобыстин, Мария Рыщенкова, Ирина Вилкова, Дарья Сазонова, Алексей Мясников, Александр Орловский, Александр Баширов, Евгения Бордзиловская, Екатерина Молоховская, Никита Емшанов, Иулиана Куликова, Дмитрий Мазуров, Елена Новикова (II), Нелли Пшенная, Максим Костромыкин, Виктория Куликова, Елена Гольянова, Федор Дунаевский-Описание: Главный герой телесериала — майор МВД Сергей Грачев, по прозвищу «Грач». Во время операции по освобождению заложника майор получает пулю в голову. Он чудом избегает смерти, несмотря на то, что врачи не смогли извлечь пулю.
Ранение полностью меняет жизнь Грача. Он пережил клиническую смерть, видел таинственный «тоннель», о котором рассказывают многие умирающие. И, самое главное, Грачу начали являться призраки — духи убитых людей, чьи убийцы до сих пор не найдены.
Отвечая на молчаливые просьбы умерших, используя их подсказки, Грач поднимает и расследует старые, безнадежные дела. Большинство знакомых и коллег считают майора сумасшедшим. Жена Грача оставляет попытки поправить не слишком удачную семейную жизнь и уходит.
Одновременно с расследованиями старых, давно забытых и «сложенных на полку» убийств Грач пытается понять природу своего странного дара, который помогает ему в раскрытии преступлений, а также наладить свою непростую личную жизнь. Шанс Грача на счастье — его подчиненная, капитан Даша Охлопкова, одна из немногих, кто верит в его дар.
-
Качество видео: SATRip
Формат видео: AVI
Видео кодек: XviD
Аудио кодек: MP3
Видео: 704x368 (1.91:1), 25 fps, XviD build 50 ~1559 kbps avg, 0.24 bit/pixel
Аудио: 48 kHz, MPEG Layer 3, 2 ch, ~192.00 kbps avg
Cубтитры: отсутствуют
Общее
Полное имя : D:\Архив\ФИЛЬМЫ\Посредник 2012\Posrednik.(01.seriya).2012.SATRip.avi
Формат : AVI
Формат/Информация : Audio Video Interleave
Размер файла : 629 Мбайт
Продолжительность : 49 м.
Общий поток : 1761 Кбит/сек
Программа кодирования : VirtualDubMod 1.5.10.3 | www.virtualdub-fr.org || (build 2550/release)
Библиотека кодирования : Boilsoft AVI tool build 1/release
Видео
Идентификатор : 0
Формат : MPEG-4 Visual
Профиль формата : Advanced [email protected]
Параметр BVOP формата : 2
Параметр QPel формата : Нет
Параметр GMC формата : Без точки перехода
Параметр матрицы формата : Выборочная
Идентификатор кодека : XVID
Идентификатор кодека/Подсказка : XviD
Продолжительность : 49 м.
Битрейт : 1559 Кбит/сек
Ширина : 704 пикселя
Высота : 368 пикселей
Соотношение сторон : 1,913
Частота кадров : 25,000 кадров/сек
Цветовое пространство : YUV
Субдискретизация насыщенности : 4:2:0
Битовая глубина : 8 бит
Тип развёртки : Прогрессивная
Метод сжатия : С потерями
Бит/(Пиксели*Кадры) : 0.241
Размер потока : 557 Мбайт (89%)
Библиотека кодирования : XviD 1.2.1 (UTC 2008-12-04)
Аудио
Идентификатор : 1
Формат : MPEG Audio
Версия формата : Version 1
Профиль формата : Layer 3
Режим : Joint stereo
Идентификатор кодека : 55
Идентификатор кодека/Подсказка : MP3
Продолжительность : 49 м.
Вид битрейта : Постоянный
Битрейт : 192 Кбит/сек
Каналы : 2 канала
Частота : 48,0 КГц
Метод сжатия : С потерями
Размер потока : 68,6 Мбайт (11%)
Выравнивание : Соединение по промежуткам
Продолжительность промежутка : 40 мс. (1,00 видеокадр)
Время предзагрузки промежутка : 504 мс.
Библиотека кодирования : LAME3.98r
Настройки программы : -m j -V 4 -q 2 -lowpass 18.6 -b 192
Download / Скачать

Хотите скачать бесплатно? Зарегистрируйтесь на сайте (ссылка на регистрацию). Pirat.ca - самый быстрый торрент трекер в рунете!

Как скачивать  ·   Что такое торрент  ·   Рейтинг и ограничения

taganrog

Штурман

Пост 16-Ноя-2013 14:18 (спустя 10 месяцев)

[Q] 

Люди!!! Ау!!! Вернитесь пожалуйста на раздачу!!!Очень охота посмотреть!!!
[Профиль]  [ЛС] 
Показать сообщения:    
Ответить на тему

Текущее время: Сегодня 02:05

Часовой пояс: GMT + 4



Вы не можете начинать темы
Вы не можете отвечать на сообщения
Вы не можете редактировать свои сообщения
Вы не можете удалять свои сообщения
Вы не можете голосовать в опросах
Вы не можете прикреплять файлы к сообщениям
Вы не можете скачивать файлы

▼ Вниз