ML
     
  Уважаемый Гость!
Вы можете поддержать проект и зарегистрироваться у наших партнеров - онлайн-стратегия MyLands. При регистрации в игре Вы получите код, который сможете активировать после регистрации на pirat.ca и получить 1000 дублонов.

Ваш код:
cc3be08b7507661c03e0a2f582d0da3a659ea55a
 
     

Марьина Роща / Сезон: 1 / Серии: 1-16 из 16 (Александр Хван) [2012 г., драма, детектив, история, SATRip]

Ответить на тему
 
Автор
Сообщение

Пост 19-Янв-2013 15:55

[Q] 

cergo

Гроза морей

-Марьина Роща По следу идет лучший сыщик Москвы-- Производство: Россия
Жанр: драма, детектив, история
Год выпуска: 2012 г.
Продолжительность: 16 x ~ 00:45:00
Российская премьера: 14 января 2013
Режиссер: Александр Хван
-В ролях: Александр Домогаров, Евгения Крюкова, Виталий Кудрявцев, Сергей Комаров (II), Савва Гусев, Елена Доронина (IV), Яна Львова, Наталья Литвинова, Виктор Тереля, Дмитрий Смирнов (V), Артем Лысков, Виталий Горшков, Виктор Маркин (II), Олег Алмазов, Сергей Потапов (II), Юрий Шлыков, Борис Романов, Константин Желдин, Петр Зайченко, Ольга Науменко, Татьяна Мухина (III), Егор Баринов, Людмила Давыдова (II), Ирина Гордина, Полина Лунегова, Татьяна Чернопятова, Алексей Михайлов (II), Ксения Баринова, Игорь Филиппов, Дмитрий Гусев, Евгений Харланов, Михаил Горский, Анастасия Платонова, Сергей Дьячков, Константин Глушков, Михаил Солодко, Максим Макаров, Игорь Огурцов-Описание: Вернувшись после победы с фронта оперативник МУРА Константин Трошин узнает, что там он больше не работает. А причина — в конфликте с влиятельным генералом НКГБ. Но Трошин не намерен отступать, так как без работы в органах жизнь его теряет всякий смысл. Он устраивается на работу в самом неблагополучном районе Москвы — Марьиной Роще. И там же из-зи личных проблем поселиться жить в коммуналке. Таким образом, Трошин оказался в самом центре криминальной среды. Он тесно сходится с ее обитателями. И, может быть, из-за этого ему удается раскрывать самые дерзкие и хладнокровные преступления. Убийства, налеты и аферы — здесь не в новинку. Но Трошин хочет идти дальше и искоренить преступление как таковое. А люди в ответ на его желание идут к нему, как третейскому судье, они доверяют ему, когда надо отделять добро от зла.-
Качество видео: SATRip
Формат видео: AVI
Видео кодек: XviD
Аудио кодек: MP3
Видео: 720x400 (1.80:1), 25 fps, XviD build 50 ~1499 kbps avg, 0.21 bit/pixel
Аудио: 48 kHz, MPEG Layer 3, 2 ch, ~128.00 kbps avg
Cубтитры: отсутствуют
Общее
Полное имя : D:\Архив\ФИЛЬМЫ\Марьина роща\Марьина роща_01.avi
Формат : AVI
Формат/Информация : Audio Video Interleave
Размер файла : 516 Мбайт
Продолжительность : 43 м.
Общий поток : 1640 Кбит/сек
Библиотека кодирования : Boilsoft AVI tool build 1/release
Видео
Идентификатор : 0
Формат : MPEG-4 Visual
Профиль формата : [email protected]
Параметр BVOP формата : Нет
Параметр QPel формата : Нет
Параметр GMC формата : Без точки перехода
Параметр матрицы формата : Default (H.263)
Идентификатор кодека : DX50
Идентификатор кодека/Подсказка : DivX 5
Продолжительность : 43 м.
Битрейт : 1499 Кбит/сек
Ширина : 720 пикселей
Высота : 400 пикселей
Соотношение сторон : 16:9
Частота кадров : 25,000 кадров/сек
Цветовое пространство : YUV
Субдискретизация насыщенности : 4:2:0
Битовая глубина : 8 бит
Тип развёртки : Прогрессивная
Метод сжатия : С потерями
Бит/(Пиксели*Кадры) : 0.208
Размер потока : 472 Мбайт (91%)
Библиотека кодирования : XviD 1.2.1 (UTC 2008-12-04)
Аудио
Идентификатор : 1
Формат : MPEG Audio
Версия формата : Version 1
Профиль формата : Layer 3
Режим : Joint stereo
Расширение режима : MS Stereo
Идентификатор кодека : 55
Идентификатор кодека/Подсказка : MP3
Продолжительность : 43 м.
Вид битрейта : Постоянный
Битрейт : 128 Кбит/сек
Каналы : 2 канала
Частота : 48,0 КГц
Метод сжатия : С потерями
Размер потока : 40,2 Мбайт (8%)
Выравнивание : Соединение по промежуткам
Продолжительность промежутка : 24 мс. (0,60 видеокадр)
Время предзагрузки промежутка : 504 мс.
Библиотека кодирования : LAME3.98.2
Download / Скачать

Хотите скачать бесплатно? Зарегистрируйтесь на сайте (ссылка на регистрацию). Pirat.ca - самый быстрый торрент трекер в рунете!

Как скачивать  ·   Что такое торрент  ·   Рейтинг и ограничения

трактор1224

Морской Волк

Пост 19-Янв-2013 16:41 (спустя 46 минут)

[Q] 

За раздачу конечно спасибо, но фильмец г...о!

_________________
ну вы блин даёте....
[Профиль]  [ЛС] 

cergo ®

Гроза морей

20059

Пост 19-Янв-2013 21:09 (спустя 4 часа)

[Q] 

308709За раздачу конечно спасибо, но фильмец г...о!
... на вкус и цвет ... удачи мой юный друг.
[Профиль]  [ЛС] 

haustx

Шкипер

Пост 31-Янв-2013 17:38 (спустя 11 дней)

[Q] 

афтору спс,но сериал трата времени,исторического соответствия 15%,не более,Домогаров престарелый супермен-ловелас наводит уныние,диалоги писались наскоро,половина актеров вообще наверно не поняли где снимаются,обратите внимание на на телефоны из будущего для того времени))),да в принцыпе фильм из ляпов и состоит,"место встречи"лучше пересмотреть еще раз...
[Профиль]  [ЛС] 

viktor41

Шкипер

Пост 15-Окт-2013 19:22 (спустя 8 месяцев 15 дней)

[Q] 

Хороший фильм . Спасибо !
[Профиль]  [ЛС] 

alex denver71

Флибустьер

Пост 28-Янв-2014 18:10 (спустя 3 месяца 12 дней)

[Q] 

Автору респект!!! Смотрел сериал понравился. Лови бочку
[Профиль]  [ЛС] 

Nik DeBori

Морской Волк

Пост 27-Фев-2014 02:31 (спустя 29 дней)

[Q] 

Спасибо!!! Фильм довольно не плох! Только продолжение как-то задержали! Мне понравилось
[Профиль]  [ЛС] 

Юр.И.К.

43

Пост 31-Янв-2016 23:57 (спустя 1 год 11 месяцев)

[Q] 

Нелестные отзывы - частное мнение. Моё тоже: интересно, познавательно, патриотично. Рекомендую.
[Профиль]  [ЛС] 
Показать сообщения:    
Ответить на тему

Текущее время: Сегодня 05:03

Часовой пояс: GMT + 4



Вы не можете начинать темы
Вы не можете отвечать на сообщения
Вы не можете редактировать свои сообщения
Вы не можете удалять свои сообщения
Вы не можете голосовать в опросах
Вы не можете прикреплять файлы к сообщениям
Вы не можете скачивать файлы

▼ Вниз