ML
     
  Уважаемый Гость!
Вы можете поддержать проект и зарегистрироваться у наших партнеров - онлайн-стратегия MyLands. При регистрации в игре Вы получите код, который сможете активировать после регистрации на pirat.ca и получить 1000 дублонов.

Ваш код:
193c38d0130f05c24de871678ea3ac181461757d
 
     

Полет бабочки / Сезон: 1 / Серии: 1-4 из 4 (Николай Михайлов ) [2013 г., мелодрама, SATRip]

Ответить на тему
 
Автор
Сообщение

Пост 19-Янв-2013 19:20

[Q] 

cergo

Гроза морей

-Полет бабочки-- Производство: Россия, Star Media
Жанр: мелодрама
Год выпуска: 2013 г.
Продолжительность: 4 x ~ 00:45:00
Режиссер: Николай Михайлов (II)
-В ролях: Борис Хвошнянский, Елена Радевич, Павел Баршак, Виктория Малекторович, София Стеценко, Костя Чернокрылюк, Станислав Боклан, Александр Кобзарь-Описание: В старом элитном доме селится молодая эффектная женщина Светлана с 10-летней дочкой Галей. Выясняется, что она сбежала из Парижа от своего бывшего французского мужа, который собирается отнять у нее дочку. У одного из соседей, известного антиквара Андрея Ковалевского есть сын, ровесник Галочки. Дети очень быстро находят общий язык, что сближает и их мам – Светлану и Ирину Ковалевскую. Вскоре Андрей, желая помочь несчастной соседке, берет ее на работу в свой антикварный салон. Это даст Светлане аргументы для французского суда, чтобы оставить дочь при себе. Отношения Ковалевского и Светланы очень быстро переходят в романтическое русло, что сразу же понимает Ирина. Обычный любовный треугольник? Вовсе нет! Так как в историю вмешается международный аферист, сотрудники ФСБ, якобы утраченный шедевр Казимира Малевича и обостряющееся при перевозбуждении заболевание сына Ковалевского.-
Качество видео: SATRip
Формат видео: AVI
Видео кодек: XviD
Аудио кодек: MP3
Видео: 720x416 (1.73:1), 25 fps, XviD build 50 ~1600 kbps avg, 0.21 bit/pixel
Аудио: 48 kHz, MPEG Layer 3, 2 ch, ~128.00 kbps avg
Cубтитры: отсутствуют
Общее
Полное имя : D:\Архив\ФИЛЬМЫ\Полет бабочки\Полет бабочки_01.avi
Формат : AVI
Формат/Информация : Audio Video Interleave
Размер файла : 568 Мбайт
Продолжительность : 45 м.
Общий поток : 1738 Кбит/сек
Библиотека кодирования : VirtualDub-MPEG2 build 24600/release
Видео
Идентификатор : 0
Формат : MPEG-4 Visual
Профиль формата : [email protected]
Параметр BVOP формата : Нет
Параметр QPel формата : Нет
Параметр GMC формата : Без точки перехода
Параметр матрицы формата : Default (H.263)
Идентификатор кодека : DX50
Идентификатор кодека/Подсказка : DivX 5
Продолжительность : 45 м.
Битрейт : 1600 Кбит/сек
Ширина : 720 пикселей
Высота : 416 пикселей
Соотношение сторон : 16:9
Частота кадров : 25,000 кадров/сек
Цветовое пространство : YUV
Субдискретизация насыщенности : 4:2:0
Битовая глубина : 8 бит
Тип развёртки : Прогрессивная
Метод сжатия : С потерями
Бит/(Пиксели*Кадры) : 0.214
Размер потока : 523 Мбайт (92%)
Библиотека кодирования : XviD 1.2.1 (UTC 2008-12-04)
Аудио
Идентификатор : 1
Формат : MPEG Audio
Версия формата : Version 1
Профиль формата : Layer 3
Режим : Joint stereo
Расширение режима : MS Stereo
Идентификатор кодека : 55
Идентификатор кодека/Подсказка : MP3
Продолжительность : 45 м.
Вид битрейта : Постоянный
Битрейт : 128 Кбит/сек
Каналы : 2 канала
Частота : 48,0 КГц
Метод сжатия : С потерями
Размер потока : 41,8 Мбайт (7%)
Выравнивание : Разделение по промежуткам
Продолжительность промежутка : 40 мс. (1,00 видеокадр)
Время предзагрузки промежутка : 500 мс.
Библиотека кодирования : LAME3.98.2
Download / Скачать

Хотите скачать бесплатно? Зарегистрируйтесь на сайте (ссылка на регистрацию). Pirat.ca - самый быстрый торрент трекер в рунете!

Как скачивать  ·   Что такое торрент  ·   Рейтинг и ограничения

viktor41

Шкипер

Пост 13-Окт-2013 22:16 (спустя 8 месяцев 25 дней)

[Q] 

Спасибо ! bf
[Профиль]  [ЛС] 

cergo ®

Гроза морей

20035

Пост 13-Окт-2013 23:26 (спустя 1 час 9 минут)

[Q] 

435319Спасибо ! bf
aa
[Профиль]  [ЛС] 
Показать сообщения:    
Ответить на тему

Текущее время: Сегодня 18:04

Часовой пояс: GMT + 4



Вы не можете начинать темы
Вы не можете отвечать на сообщения
Вы не можете редактировать свои сообщения
Вы не можете удалять свои сообщения
Вы не можете голосовать в опросах
Вы не можете прикреплять файлы к сообщениям
Вы не можете скачивать файлы

▼ Вниз