ML
     
  Уважаемый Гость!
Вы можете поддержать проект и зарегистрироваться у наших партнеров - онлайн-стратегия MyLands. При регистрации в игре Вы получите код, который сможете активировать после регистрации на pirat.ca и получить 1000 дублонов.

Ваш код:
4fbd9898b6f10799a3e8edf60f31febd2bc15453
 
     

Одиссея сыщика Гурова / Сезон: 1 / Серии: 1-24 из 24 (Федор Петрухин) [2012 г., Детектив, криминал, SATRip]

Ответить на тему
 
Автор
Сообщение

Пост 19-Янв-2013 20:06

[Q] 

cergo

Гроза морей

-Одиссея сыщика Гурова (1-24 серия из 24)Гроза преступного мира возвращается!-- Производство: Россия, Мело-фильм
Жанр: Детектив, криминал
Год выпуска: 2012 г.
Продолжительность: 24 x ~ 00:45:00
Режиссер: Федор Петрухин
-В ролях: Сергей Маховиков, Борис Покровский, Алиса Признякова, Евгения Чиркова, Владимир Стержаков, Игорь Иванов (VII), Александр Нехороших, Андрей Зайцев (II), Роман Фролов, Дмитрий Толкачев, Екатерина Архарова, Ольга Родина, Владимир Колида, Михаил Асанкин, Константин Силаков, Олег Флеер, Виталий Шевелев, Владимир Гараев-Описание: Гроза преступного мира возвращается! Тот самый Гуров — немногословный, невозмутимый, непреклонный, лучший сыщик МУРа — снова идет в бой, и покой ему только снится! У него не бывает нераскрытых дел и безвыходных ситуаций. Ему по силам вывести на чистую воду любого бандита. Он доверяет своей интуиции, никогда не забывает о дедукции и всегда опережает противника. С ним работает команда верных единомышленников, а бессменный начальник — генерал Орлов — по-прежнему готов подставить плечо своему верному товарищу!-
Качество видео: SATRip
Формат видео: AVI
Видео кодек: XviD
Аудио кодек: MP3
Видео: 704x400 (1.76:1), 25 fps, XviD build 50 ~1495 kbps avg, 0.21 bit/pixel
Аудио: 48 kHz, MPEG Layer 3, 2 ch, ~128.00 kbps avg
Cубтитры: отсутствуют
Общее
Полное имя : D:\Архив\ФИЛЬМЫ\Одиссея сыщика Гурова\Одиссея сыщика Гурова_01.avi
Формат : AVI
Формат/Информация : Audio Video Interleave
Размер файла : 534 Мбайт
Продолжительность : 45 м.
Общий поток : 1636 Кбит/сек
Библиотека кодирования : Boilsoft AVI tool build 1/release
Видео
Идентификатор : 0
Формат : MPEG-4 Visual
Профиль формата : [email protected]
Параметр BVOP формата : Нет
Параметр QPel формата : Нет
Параметр GMC формата : Без точки перехода
Параметр матрицы формата : Default (H.263)
Идентификатор кодека : DX50
Идентификатор кодека/Подсказка : DivX 5
Продолжительность : 45 м.
Битрейт : 1495 Кбит/сек
Ширина : 704 пикселя
Высота : 400 пикселей
Соотношение сторон : 16:9
Частота кадров : 25,000 кадров/сек
Цветовое пространство : YUV
Субдискретизация насыщенности : 4:2:0
Битовая глубина : 8 бит
Тип развёртки : Прогрессивная
Метод сжатия : С потерями
Бит/(Пиксели*Кадры) : 0.212
Размер потока : 488 Мбайт (91%)
Библиотека кодирования : XviD 1.2.1 (UTC 2008-12-04)
Аудио
Идентификатор : 1
Формат : MPEG Audio
Версия формата : Version 1
Профиль формата : Layer 3
Режим : Joint stereo
Расширение режима : MS Stereo
Идентификатор кодека : 55
Идентификатор кодека/Подсказка : MP3
Продолжительность : 45 м.
Вид битрейта : Постоянный
Битрейт : 128 Кбит/сек
Каналы : 2 канала
Частота : 48,0 КГц
Метод сжатия : С потерями
Размер потока : 41,8 Мбайт (8%)
Выравнивание : Соединение по промежуткам
Продолжительность промежутка : 24 мс. (0,60 видеокадр)
Время предзагрузки промежутка : 504 мс.
Библиотека кодирования : LAME3.98.2
Download / Скачать

Хотите скачать бесплатно? Зарегистрируйтесь на сайте (ссылка на регистрацию). Pirat.ca - самый быстрый торрент трекер в рунете!

Как скачивать  ·   Что такое торрент  ·   Рейтинг и ограничения



Последний раз редактировалось: cergo (2013-03-03 12:59), всего редактировалось 5 раз(а)

cergo ®

Гроза морей

20035

Пост 26-Янв-2013 22:22 (спустя 7 дней)

[Q] 

добавлены 5, 6, 7, 8 серии.
[Профиль]  [ЛС] 

трактор1224

Морской Волк

Пост 27-Янв-2013 08:13 (спустя 9 часов)

[Q] 


_________________
ну вы блин даёте....
[Профиль]  [ЛС] 

cergo ®

Гроза морей

20035

Пост 27-Янв-2013 11:00 (спустя 2 часа 46 минут)

[Q] 

[Профиль]  [ЛС] 

Runi21

Флибустьер

46

Пост 28-Янв-2013 11:53 (спустя 1 день)

[Q] 


_________________
[Профиль]  [ЛС] 

cergo ®

Гроза морей

20035

Пост 02-Фев-2013 19:18 (спустя 5 дней)

[Q] 

добавлены 9, 10, 11, 12 серии.
[Профиль]  [ЛС] 

cergo ®

Гроза морей

20035

Пост 09-Фев-2013 17:35 (спустя 6 дней)

[Q] 

добавлены 13, 14, 15, 16 серии.
[Профиль]  [ЛС] 

mitrich_pv

Корсар

Пост 10-Фев-2013 15:36 (спустя 22 часа)

[Q] 


_________________
И хоть иду я долиною скорби, не убоюсь я зла, ибо я и есть самая злобная тварь в этой долине...
[Профиль]  [ЛС] 

reg_vokz7_7

Юнга

Пост 13-Фев-2013 09:03 (спустя 2 дня 17 часов)

[Q] 

спасибо
[Профиль]  [ЛС] 

cergo ®

Гроза морей

20035

Пост 17-Фев-2013 18:26 (спустя 4 дня)

[Q] 

добавлены 17, 18, 19, 20 серии.
[Профиль]  [ЛС] 

cergo ®

Гроза морей

20035

Пост 03-Мар-2013 13:01 (спустя 13 дней)

[Q] 

добавлены 21, 22, 23, 24 серии.
[Профиль]  [ЛС] 

lexmar

Корсар

Пост 03-Мар-2013 14:40 (спустя 1 час 39 минут)

[Q] 

[Профиль]  [ЛС] 

DUKAT51

Морской Волк

Пост 03-Мар-2013 15:51 (спустя 1 час 10 минут)

[Q] 

[Профиль]  [ЛС] 

cergo ®

Гроза морей

20035

Пост 03-Мар-2013 16:13 (спустя 22 минуты)

[Q] 

lexmar, DUKAT51, aa az
[Профиль]  [ЛС] 
Показать сообщения:    
Ответить на тему

Текущее время: Сегодня 20:03

Часовой пояс: GMT + 4



Вы не можете начинать темы
Вы не можете отвечать на сообщения
Вы не можете редактировать свои сообщения
Вы не можете удалять свои сообщения
Вы не можете голосовать в опросах
Вы не можете прикреплять файлы к сообщениям
Вы не можете скачивать файлы

▼ Вниз