ML
     
  Уважаемый Гость!
Вы можете поддержать проект и зарегистрироваться у наших партнеров - онлайн-стратегия MyLands. При регистрации в игре Вы получите код, который сможете активировать после регистрации на pirat.ca и получить 1000 дублонов.

Ваш код:
b70663c760e7cd2521b8e123786cdd788200e3bd
 
     

Одинокий волк ( Серии: 1-24 из 24) (Александр Кулямин) [2013 г., Драма,Криминал, SATRip]

Ответить на тему
 
Автор
Сообщение

Пост 28-Янв-2013 19:16

[Q] 

Amethyst

-Одинокий волк-- Год выпуска: 2013
Производство: Россия / Город
Жанр: Драма,Криминал
Продолжительность: 24 х 00:42:14
Режиссер: Александр Кулямин
В ролях: Максим Щёголев, Максим Дрозд, Игорь Верник, Валерий Николаев, Геннадий Шныптев, Дмитрий Митюрич, Владимир Лысенко, Иннокентий Тарабара, Елена Олькина, Карина Реука, Бесо Гатаев
Описание: Трудно жить с человеком, у которого чрезвычайно сложный характер, которого никто не может сломать и ущемить, который ни перед каким предлогом не уступает и не идет даже на самые небольшие поступки. В народе подобных людей называют волками. Однако как часто случается, их никто не окружает особо, поскольку они одинокие волки. Это история о сильном, мужественно и временами сложном характере.

Сэмпл КиноПоиск
--Источник/Качество: SATRip
Формат: AVI
Видео кодек: DivX 5
Аудио кодек: МР3
Видео: DivX 5, 720x400 (16:9), 25.000 fps, 1501 Kbit/s
Аудио: МР3, 48000 Hz, 2 каналов, 128 kbit/s
Общее
Полное имя : D:\Торенты\Odinokij.volk.2013.SATRip\Odinokij.volk.01.SATRip.avi
Формат : AVI
Формат/Информация : Audio Video Interleave
Размер файла : 495 Мбайт
Продолжительность : 42 м.
Общий поток : 1638 Кбит/сек
Библиотека кодирования : VirtualDub build 32842/release
Видео
Идентификатор : 0
Формат : MPEG-4 Visual
Параметр BVOP формата : 1
Параметр QPel формата : Нет
Параметр GMC формата : Без точки перехода
Параметр матрицы формата : Default (H.263)
Режим смешивания : Сжатый битовый поток
Идентификатор кодека : DX50
Идентификатор кодека/Подсказка : DivX 5
Продолжительность : 42 м.
Битрейт : 1501 Кбит/сек
Ширина : 720 пикселей
Высота : 400 пикселей
Соотношение сторон : 16:9
Частота кадров : 25,000 кадров/сек
Цветовое пространство : YUV
Субдискретизация насыщенности : 4:2:0
Битовая глубина : 8 бит
Тип развёртки : Прогрессивная
Метод сжатия : С потерями
Бит/(Пиксели*Кадры) : 0.208
Размер потока : 453 Мбайт (92%)
Библиотека кодирования : DivX 6.8.5 (UTC 2009-08-20)
Аудио
Идентификатор : 1
Формат : MPEG Audio
Версия формата : Version 1
Профиль формата : Layer 3
Режим : Joint stereo
Расширение режима : MS Stereo
Идентификатор кодека : 55
Идентификатор кодека/Подсказка : MP3
Продолжительность : 42 м.
Вид битрейта : Постоянный
Битрейт : 128 Кбит/сек
Каналы : 2 канала
Частота : 48,0 КГц
Метод сжатия : С потерями
Размер потока : 38,7 Мбайт (8%)
Выравнивание : Разделение по промежуткам
Продолжительность промежутка : 40 мс. (1,00 видеокадр)
Время предзагрузки промежутка : 500 мс.
Download / Скачать

Хотите скачать бесплатно? Зарегистрируйтесь на сайте (ссылка на регистрацию). Pirat.ca - самый быстрый торрент трекер в рунете!

Как скачивать  ·   Что такое торрент  ·   Рейтинг и ограничения



Последний раз редактировалось: Amethyst (2013-02-13 21:48), всего редактировалось 9 раз(а)

g2418

Штурман

Пост 28-Янв-2013 19:40 (спустя 24 минуты)

[Q] 

как весь выйдет-обязательно скачаю!!! Спасибо за релиз!!!
[Профиль]  [ЛС] 

valeriy_palych

Морской Волк

Пост 01-Фев-2013 18:41 (спустя 3 дня)

[Q] 

24 серии - устанешь смотреть...
[Профиль]  [ЛС] 

viktor41

Шкипер

Пост 13-Окт-2013 22:15 (спустя 8 месяцев 12 дней)

[Q] 

Спасибо за релиз! Автору респект!!!
[Профиль]  [ЛС] 

Simsim

Морской Волк

Пост 15-Окт-2013 13:45 (спустя 1 день 15 часов)

[Q] 

Весит много хорошо(отзывов мало это плохо)пишите
[Профиль]  [ЛС] 
Показать сообщения:    
Ответить на тему

Текущее время: Сегодня 00:23

Часовой пояс: GMT + 4



Вы не можете начинать темы
Вы не можете отвечать на сообщения
Вы не можете редактировать свои сообщения
Вы не можете удалять свои сообщения
Вы не можете голосовать в опросах
Вы не можете прикреплять файлы к сообщениям
Вы не можете скачивать файлы

▼ Вниз