ML
     
  Уважаемый Гость!
Вы можете поддержать проект и зарегистрироваться у наших партнеров - онлайн-стратегия MyLands. При регистрации в игре Вы получите код, который сможете активировать после регистрации на pirat.ca и получить 1000 дублонов.

Ваш код:
0af2e2107bc9b5dd5ac2c09f9fc25e1a77c43887
 
     

Ночные ласточки ( Серии: 1-8 из 8) (Михаил Кабанов) [2013 г., Боевик, мелодрама, SATRip]

Ответить на тему
 
Автор
Сообщение

Пост 28-Янв-2013 20:23

[Q] 

Amethyst

-Ночные ласточки-- Год выпуска: 2013
Производство: Россия / Star Media
Жанр: Боевик, мелодрама
Продолжительность: 8 х 00:49:31
Режиссер: Михаил Кабанов
В ролях: Олеся Фаттахова, Екатерина Олькина, Татьяна Арнтгольц, Елизавета Нилова, Мария Пирогова, Дмитрий Мазуров, Олег Гераськин, Владимир Капустин, Александр Новик, Константин Спасский, Наталья Людскова, Анатолий Завьялов
Описание: В годы Великой Отечественной войны в рядах Красной Армии, наравне с мужчинами, сражалось около 600 000 женщин. Много женщин было и в авиации: лётчицы, штурманы, стрелки — радисты, вооруженцы… При этом, женщины — авиаторы сражались как в составах обычных «мужских» авиационных полков, так и отдельных «женских». О некоторых наиболее известных лётчицах, об истории создания и боевом пути женских авиационных полков, и будет этот рассказ…

Сэмпл КиноПоиск
--Источник/Качество: SATRip
Формат: AVI
Видео кодек: DivX 5
Аудио кодек: МР3
Видео: DivX 5, 704x400 (16:9), 25.000 fps, 1500 Kbit/s
Аудио: МР3, 48000 Hz, 2 каналов, 192 kbit/s
Общее
Полное имя : D:\Торенты\Nochnie.Lastochki.SATRip.avi
Формат : AVI
Формат/Информация : Audio Video Interleave
Размер файла : 603 Мбайт
Продолжительность : 49 м.
Общий поток : 1702 Кбит/сек
Программа кодирования : VirtualDubModRus 1.5.10.1 (build 2439/release)
Библиотека кодирования : VirtualDubMod build 2439/release
Видео
Идентификатор : 0
Формат : MPEG-4 Visual
Параметр BVOP формата : 1
Параметр QPel формата : Нет
Параметр GMC формата : Без точки перехода
Параметр матрицы формата : Default (H.263)
Режим смешивания : Сжатый битовый поток
Идентификатор кодека : DX50
Идентификатор кодека/Подсказка : DivX 5
Продолжительность : 49 м.
Битрейт : 1500 Кбит/сек
Ширина : 704 пикселя
Высота : 400 пикселей
Соотношение сторон : 16:9
Частота кадров : 25,000 кадров/сек
Цветовое пространство : YUV
Субдискретизация насыщенности : 4:2:0
Битовая глубина : 8 бит
Тип развёртки : Прогрессивная
Метод сжатия : С потерями
Бит/(Пиксели*Кадры) : 0.213
Размер потока : 532 Мбайт (88%)
Библиотека кодирования : DivX 6.8.5 (UTC 2009-08-20)
Аудио
Идентификатор : 1
Формат : MPEG Audio
Версия формата : Version 1
Профиль формата : Layer 2
Идентификатор кодека : 50
Продолжительность : 49 м.
Вид битрейта : Постоянный
Битрейт : 192 Кбит/сек
Каналы : 2 канала
Частота : 48,0 КГц
Метод сжатия : С потерями
Размер потока : 68,0 Мбайт (11%)
Выравнивание : Соединение по промежуткам
Продолжительность промежутка : 40 мс. (1,00 видеокадр)
Время предзагрузки промежутка : 504 мс.
Download / Скачать

Хотите скачать бесплатно? Зарегистрируйтесь на сайте (ссылка на регистрацию). Pirat.ca - самый быстрый торрент трекер в рунете!

Как скачивать  ·   Что такое торрент  ·   Рейтинг и ограничения



Последний раз редактировалось: Amethyst (2013-01-31 20:57), всего редактировалось 6 раз(а)

budilnik74

Морской Волк

Пост 29-Янв-2013 08:39 (спустя 12 часов)

[Q] 

[Профиль]  [ЛС] 

chuk1974

Лоцман

Пост 30-Янв-2013 20:29 (спустя 1 день 11 часов)

[Q] 

прямо уже сижу жду, 19-51 создана, 19-55 обновлена))))) оперативненько и чотко))))
[Профиль]  [ЛС] 

lytboris

Лоцман

Пост 30-Янв-2013 22:07 (спустя 1 час 38 минут)

[Q] 

Ночные ласточки ( Серии: 1-6 из 8) (Михаил Кабанов) [2013 г., Боевик, мелодрама, SATRip]
Ночные ласточки (1-6 серии из 16) / 2013 / РУ / SATRip
как это понимать?
[Профиль]  [ЛС] 

Amethyst ®

27353

Пост 31-Янв-2013 21:01 (спустя 22 часа)

[Q] 

Что то я не понял? Ты про что lytboris?
[Профиль]  [ЛС] 

Stalker_29

Корсар

Пост 22-Мар-2013 17:39 (спустя 1 месяц 21 день)

[Q] 

А чет я не понял, это все или будет продолжение?
[Профиль]  [ЛС] 
Показать сообщения:    
Ответить на тему

Текущее время: Сегодня 00:04

Часовой пояс: GMT + 4



Вы не можете начинать темы
Вы не можете отвечать на сообщения
Вы не можете редактировать свои сообщения
Вы не можете удалять свои сообщения
Вы не можете голосовать в опросах
Вы не можете прикреплять файлы к сообщениям
Вы не можете скачивать файлы

▼ Вниз