ML
     
  Уважаемый Гость!
Вы можете поддержать проект и зарегистрироваться у наших партнеров - онлайн-стратегия MyLands. При регистрации в игре Вы получите код, который сможете активировать после регистрации на pirat.ca и получить 1000 дублонов.

Ваш код:
e93cd9e43017f251127f220889864c05934e61c6
 
     

Универ / Сезон: 1-5 / Серии: 1-255 (Пётр Точилин, Жанна Кадникова, Иван Китаев) [2008 г., комедия, ситком, SATRip]

Ответить на тему
 
Автор
Сообщение

Пост 04-Мар-2013 02:01

[Q] 

Bile

-Универ / Серии 1-255-- Производство: Россия
Жанр: комедия, ситком
Год выпуска: 2008-2011 гг.
Продолжительность: ~23 минуты серия
Режиссер: Пётр Точилин, Жанна Кадникова, Иван Китаев-В ролях: Андрей Гайдулян, Алексей Гаврилов, Виталий Гогунский, Мария Кожевникова, Валентина Рубцова, Арарат Кещян, Алексей Климушкин и др.-Описание: Их пятеро. Они живут в соседних комнатах университетской общаги, у них общая кухня, туалет и ванная. Им ничего не остается, кроме как искренне полюбить друг друга, чем они периодически и занимаются. Как они учатся и даже переходят с курса на курс – настоящая загадка, потому что целыми днями они выносят друг другу мозг и попадают в передряги.-Качество видео: SATRip
Контейнер: AVI
Cубтитры: отсутствуют
1 сезон(Серии 1-44)
Аудио:48 kHz, MPEG Layer 3, 1 ch, ~96.00 kbps avg
Видео:640x384 (1.67:1), 25 fps, XviD build 47 ~1082 kbps avg, 0.18 bit/pixel



-
2 сезон(45-100)
Аудио:48 kHz, MPEG Layer 3, 1 ch, ~128.00 kbps avg
Видео:640x384 (1.67:1), 25 fps, XviD build 50 ~1195 kbps avg, 0.19 bit/pixel



-
-
3 сезон(101-155)
Аудио:48 kHz, MPEG Layer 3, 1 ch, ~96.00 kbps avg
Видео:640x368 (1.74:1), 25 fps, XviD MPEG-4 ~1225 kbps avg, 0.21 bit/pixel



-
-
4 сезон(156-201)
Аудио:48 kHz, MPEG Layer 3, 1 ch, ~128.00 kbps avg
Видео:704x384 (1.83:1), 25 fps, XviD MPEG-4 ~1530 kbps avg, 0.23 bit/pixel



-
-
5 сезон(Серии 202-255)
Аудио:48 kHz, MPEG Layer 3, 1 ch, ~128.00 kbps avg
Видео:704x400 (1.76:1), 25 fps, DivX Codec 6.8.5/6.9.1 ~1600 kbps avg, 0.23 bit/pixel



-
Общее
Полное имя :Univer\Univer_001_SATRip_by_BigFAN.avi
Формат : AVI
Формат/Информация : Audio Video Interleave
Размер файла : 200 Мбайт
Продолжительность : 23 м.
Общий поток : 1185 Кбит/сек
Программа кодирования : VirtualDubMod 1.5.4.1 (build 2178/release)
Библиотека кодирования : VirtualDubMod build 2178/release
Видео
Идентификатор : 0
Формат : MPEG-4 Visual
Профиль формата : Advanced [email protected]
Параметр BVOP формата : 1
Параметр QPel формата : Нет
Параметр GMC формата : Без точки перехода
Параметр матрицы формата : Выборочная
Идентификатор кодека : XVID
Идентификатор кодека/Подсказка : XviD
Продолжительность : 23 м.
Битрейт : 1082 Кбит/сек
Ширина : 640 пикселей
Высота : 384 пикселя
Соотношение сторон : 1,667
Частота кадров : 25,000 кадров/сек
Цветовое пространство : YUV
Субдискретизация насыщенности : 4:2:0
Битовая глубина : 8 бит
Тип развёртки : Прогрессивная
Метод сжатия : С потерями
Бит/(Пиксели*Кадры) : 0.176
Размер потока : 182 Мбайт (91%)
Библиотека кодирования : XviD 1.2.0.dev47 (UTC 2006-11-01)
Аудио
Идентификатор : 1
Формат : MPEG Audio
Версия формата : Version 1
Профиль формата : Layer 3
Идентификатор кодека : 55
Идентификатор кодека/Подсказка : MP3
Продолжительность : 23 м.
Вид битрейта : Постоянный
Битрейт : 96,0 Кбит/сек
Каналы : 1 канал
Частота : 48,0 КГц
Метод сжатия : С потерями
Размер потока : 16,2 Мбайт (8%)
Выравнивание : Соединение по промежуткам
Продолжительность промежутка : 80 мс. (2,00 видеокадра)
Время предзагрузки промежутка : 504 мс.
Библиотека кодирования : LAME3.97b
Настройки программы : -m m -V 4 -q 2 -lowpass 20.5 -b 96
Download / Скачать

Хотите скачать бесплатно? Зарегистрируйтесь на сайте (ссылка на регистрацию). Pirat.ca - самый быстрый торрент трекер в рунете!

Как скачивать  ·   Что такое торрент  ·   Рейтинг и ограничения

czar007

Лоцман

Пост 28-Авг-2013 20:49 (спустя 5 месяцев 24 дня)

[Q] 

Капец 62 gb сколько качатся будет он
[Профиль]  [ЛС] 

gigtv05

Пост 05-Авг-2016 00:56 (спустя 2 года 11 месяцев)

[Q] 

спасибо за раздачу.отличный сериал
[Профиль]  [ЛС] 
Показать сообщения:    
Ответить на тему

Текущее время: Сегодня 04:28

Часовой пояс: GMT + 4



Вы не можете начинать темы
Вы не можете отвечать на сообщения
Вы не можете редактировать свои сообщения
Вы не можете удалять свои сообщения
Вы не можете голосовать в опросах
Вы не можете прикреплять файлы к сообщениям
Вы не можете скачивать файлы

▼ Вниз