ML
     
  Уважаемый Гость!
Вы можете поддержать проект и зарегистрироваться у наших партнеров - онлайн-стратегия MyLands. При регистрации в игре Вы получите код, который сможете активировать после регистрации на pirat.ca и получить 1000 дублонов.

Ваш код:
822959f93c00d34653763d5bbf9ee9a7134af98a
 
     

Фотограф / Сезон: 1 / Серии: 1-16 из 16 (Ольга Субботина) [2008 г., детектив, DVDRip]

Ответить на тему
 
Автор
Сообщение

Пост 13-Мар-2013 17:32

[Q] 

h5n1

Гроза морей

-Фотограф-- Производство: ПЦ "Пирамида" (ООО "Максимус")
Жанр: детектив
Год выпуска: 2008 г.
Продолжительность: Каждая серия ~ 00:52:20
Дата выхода DVD: 23 июня 2009, «Первая Видеокомпания»
Режиссер: Ольга Субботина-В ролях: Валерий Николаев, Вячеслав Разбегаев,Светлана Светикова, Александр Олешко, Любовь Толкалина, Наталья Громушкина, Алла Будницкая, Леонид Каневский,Екатерина Гусева, Таисия Вилкова, Татьяна Лютаева, Вера Воронкова, Сегей Мухин, Михаил Дорожкин, Евгений Князев, Евгений Редько, Наталья Антонова, Игорь Ясулович, Артем Смола-Описание: Герой сериала – модный фотограф Кирилл Баженов. Поп-звезды, политики, известные спортсмены почитают за честь принять участие в его фотосессиях. Кирилл невольно оказывается втянутым в криминальные ситуации, в которые попадают герои его фоторабот. Порой Баженов становится даже подозреваемым в уголовных делах. Но чаще ему приходится расследовать запутанные истории.
Чтобы разобраться в сложившихся ситуациях и найти преступника, Кирилл активно помогает своему другу – следователю Алексею Молчанову. Этих двух героев свело вместе общее увлечение – коллекционирование оловянных солдатиков. Со временем увлечение переросло в крепкую мужскую дружбу...-
Качество видео: DVDRip-AVC
Контейнер: AVI
Видео кодек: DivX
Аудио кодек: AC3
Видео: 672x384,1212 Кбит/сек,25,000 кадров/сек
Аудио: 192 Кбит/сек, 2 канала,48,0 КГц
Cубтитры: отсутствуют
Формат : AVI
Формат/Информация : Audio Video Interleave
Размер файла : 530 Мбайт
Продолжительность : 52 м.
Общий поток : 1414 Кбит/сек
Программа кодирования : VirtualDubMod 1.5.10.2 (build 2540/release)
Библиотека кодирования : VirtualDubMod build 2540/release
Видео
Идентификатор : 0
Формат : MPEG-4 Visual
Параметр BVOP формата : 1
Параметр QPel формата : Нет
Параметр GMC формата : Без точки перехода
Параметр матрицы формата : Default (H.263)
Режим смешивания : Сжатый битовый поток
Идентификатор кодека : DX50
Идентификатор кодека/Подсказка : DivX 5
Продолжительность : 52 м.
Битрейт : 1212 Кбит/сек
Ширина : 672 пикселя
Высота : 384 пикселя
Соотношение сторон : 16:9
Частота кадров : 25,000 кадров/сек
Цветовое пространство : YUV
Субдискретизация насыщенности : 4:2:0
Битовая глубина : 8 бит
Тип развёртки : Прогрессивная
Метод сжатия : С потерями
Бит/(Пиксели*Кадры) : 0.188
Размер потока : 455 Мбайт (86%)
Библиотека кодирования : DivX 5.1.1 (Maupiti) (UTC 2003-11-19)
Аудио
Идентификатор : 1
Формат : AC-3
Формат/Информация : Audio Coding 3
Расширение режима : CM (complete main)
Параметр Endianness формата : Big
Идентификатор кодека : 2000
Продолжительность : 52 м.
Вид битрейта : Постоянный
Битрейт : 192 Кбит/сек
Каналы : 2 канала
Расположение каналов : Front: L R
Частота : 48,0 КГц
Битовая глубина : 16 бит
Метод сжатия : С потерями
Размер потока : 72,0 Мбайт (14%)
Выравнивание : Разделение по промежуткам
Продолжительность промежутка : 40 мс. (1,00 видеокадр)
Время предзагрузки промежутка : 500 мс.
Download / Скачать

Хотите скачать бесплатно? Зарегистрируйтесь на сайте (ссылка на регистрацию). Pirat.ca - самый быстрый торрент трекер в рунете!

Как скачивать  ·   Что такое торрент  ·   Рейтинг и ограничения



Последний раз редактировалось: h5n1 (2013-03-14 07:00), всего редактировалось 2 раз(а)

h5n1 ®

Гроза морей

483

Пост 13-Мар-2013 17:48 (спустя 16 минут)

[Q] 

Модер, помогай... создаю торрент с одним названием, на сайт грузится с другим...хз че такое

_________________
«Мы находимся здесь, чтобы внести свой вклад в этот мир. Иначе зачем мы здесь?» S.Jobs
[Профиль]  [ЛС] 

Андря

8410

Пост 13-Мар-2013 22:44 (спустя 4 часа)

[Q] 

торрент нормальный, автозамена имени стоит.
А вот скриншоты нужно переделать.
нужно, нужно встать на раздачу.

_________________
Като Тешекика
[Профиль]  [ЛС] 

Андрей1968

Корсар

29

Пост 22-Мар-2013 12:52 (спустя 8 дней)

[Q] 

что то совсем не качается bk
[Профиль]  [ЛС] 
Показать сообщения:    
Ответить на тему

Текущее время: Сегодня 05:55

Часовой пояс: GMT + 4



Вы не можете начинать темы
Вы не можете отвечать на сообщения
Вы не можете редактировать свои сообщения
Вы не можете удалять свои сообщения
Вы не можете голосовать в опросах
Вы не можете прикреплять файлы к сообщениям
Вы не можете скачивать файлы

▼ Вниз