ML
     
  Уважаемый Гость!
Вы можете поддержать проект и зарегистрироваться у наших партнеров - онлайн-стратегия MyLands. При регистрации в игре Вы получите код, который сможете активировать после регистрации на pirat.ca и получить 1000 дублонов.

Ваш код:
5af7de75d3db09b6a37bc8bab71b0e87ccde73d6
 
     

Сваты (за кадром) / Сезон: 6 / Серии: 1-4 из 4 (Андрей Яковлев, Эдуард Радзюкевич) [2013 г., Семейная комедия, SATRip]

Ответить на тему
 
Автор
Сообщение

Пост 22-Мар-2013 01:18

[Q] 

GMCJimmy

Легенда

-Сваты (за кадром)-- Производство: Украина, "Студия Квартал-95"
Жанр: Семейная комедия
Год выпуска: 2013 г.
Продолжительность: ~00:44:07 (серия)
Режиссер: Андрей Яковлев, Эдуард Радзюкевич-В ролях: Фёдор Добронравов, Татьяна Кравченко, Людмила Артемьева, Анна Кошмал, Александр Феклистов, Анна Полищук, Костя Чернокрылюк, Олеся Железняк, Николай Добрынин, Владимир Зельдин, Ольга Аросева, Даниил Белых, Инна Королёва, Эммануил Виторган, Елена Сафонова, Роман Лукьянов, Евгений Капорин, Фёдор Гуринец, Алексей Смолка, Денис Шепотинник, Татьяна Васильева, Мария Кочур, Екатерина Варченко-Описание: Знаете ли вы, что после команды "Стоп, снято!" начинается все самое интересное? Съемочная группа любимого сериала прожила с "Сватами" весь год и готова поделиться уникальными кадрами и интервью, снятыми во время напряженной работы над шестым сезоном. Зрители увидят, как снимались самые яркие сцены сериала "Сваты-6" и услышат актерские байки со съемочной площадки. Главные герои документального фильма - актеры, авторы и другие члены съемочной группы - расскажут о все внештатные ситуации, о комические случаи и даже драматические эпизоды, которые произошли во время съемок. Все это в 4-серийном документальном проекте "Сваты-6. За кадром".-Качество видео: SATRip
Контейнер: AVI
Видео кодек: XviD
Аудио кодек: MP3
Видео: 720x400,~ 1500 Кбит/с,25.000 fps
Аудио: 192 Кбит/с ,2 ch , 48.0 KHz
Cубтитры: отсутствуют
Format : AVI
Format/Info : Audio Video Interleave
File size : 513 MiB
Duration : 44mn 7s
Overall bit rate : 1 625 Kbps
Video
ID : 0
Format : MPEG-4 Visual
Format profile : Advanced [email protected]
Format settings, BVOP : 1
Format settings, QPel : No
Format settings, GMC : No warppoints
Format settings, Matrix : Default (H.263)
Muxing mode : Packed bitstream
Codec ID : XVID
Codec ID/Hint : XviD
Duration : 44mn 7s
Bit rate : 1 423 Kbps
Width : 720 pixels
Height : 400 pixels
Display aspect ratio : 16:9
Frame rate : 25.000 fps
Color space : YUV
Chroma subsampling : 4:2:0
Bit depth : 8 bits
Scan type : Progressive
Compression mode : Lossy
Bits/(Pixel*Frame) : 0.198
Stream size : 449 MiB (88%)
Writing library : XviD 64
Audio
ID : 1
Format : MPEG Audio
Format version : Version 1
Format profile : Layer 3
Mode : Joint stereo
Mode extension : MS Stereo
Codec ID : 55
Codec ID/Hint : MP3
Duration : 44mn 6s
Bit rate mode : Constant
Bit rate : 192 Kbps
Channel(s) : 2 channels
Sampling rate : 48.0 KHz
Compression mode : Lossy
Stream size : 60.6 MiB (12%)
Alignment : Split accross interleaves
Interleave, duration : 40 ms (1.00 video frame)
Interleave, preload duration : 500 ms
Writing library : LAME3.98.2
Download / Скачать

Хотите скачать бесплатно? Зарегистрируйтесь на сайте (ссылка на регистрацию). Pirat.ca - самый быстрый торрент трекер в рунете!

Как скачивать  ·   Что такое торрент  ·   Рейтинг и ограничения



Последний раз редактировалось: GMCJimmy (2013-03-23 15:13), всего редактировалось 3 раз(а)

Dima White

Штурман

Пост 22-Мар-2013 02:03 (спустя 44 минуты)

[Q] 

где остальное?
[Профиль]  [ЛС] 

GMCJimmy ®

Легенда

9520

Пост 22-Мар-2013 13:59 (спустя 11 часов)

[Q] 

упс...исправил...запарился просто... ah
[Профиль]  [ЛС] 

Jigsaw

Пост 22-Мар-2013 21:19 (спустя 7 часов)

[Q] 

Собственно, просмотрев первые две серии документального кино про Сватов, убедился еще раз в том, что и актерский состав и сюжет просто отпад!!! ay
 

GMCJimmy ®

Легенда

9520

Пост 22-Мар-2013 21:30 (спустя 11 минут)

[Q] 

343491Собственно, просмотрев первые две серии документального кино про Сватов, убедился еще раз что это замечательный фильм! ay
ay ay ay
[Профиль]  [ЛС] 

Андря

8409

Пост 22-Мар-2013 23:39 (спустя 2 часа 9 минут)

[Q] 

Эдуард Радзюкевич ну просто прирождённый артист.

_________________
Като Тешекика
[Профиль]  [ЛС] 

shipper

Шкипер

Пост 04-Дек-2016 19:49 (спустя 3 года 8 месяцев)

[Q] 

Супер! Спасибо!!!
[Профиль]  [ЛС] 
Показать сообщения:    
Ответить на тему

Текущее время: Сегодня 14:14

Часовой пояс: GMT + 4



Вы не можете начинать темы
Вы не можете отвечать на сообщения
Вы не можете редактировать свои сообщения
Вы не можете удалять свои сообщения
Вы не можете голосовать в опросах
Вы не можете прикреплять файлы к сообщениям
Вы не можете скачивать файлы

▼ Вниз