ML
     
  Уважаемый Гость!
Вы можете поддержать проект и зарегистрироваться у наших партнеров - онлайн-стратегия MyLands. При регистрации в игре Вы получите код, который сможете активировать после регистрации на pirat.ca и получить 1000 дублонов.

Ваш код:
5af7de75d3db09b6a37bc8bab71b0e87ccde73d6
 
     

Время Синдбада / Сезон: 5 / Серии: 1-24 из 24 (Ким Дружинин, Ольга Кандидатова, Кирилл Капица) [2013 г., боевик, детектив, SATRip]

Ответить на тему
 
Автор
Сообщение

Пост 07-Апр-2013 09:32

[Q] 

h5n1

Гроза морей

-Время Синдбада-- Производство: Форвард-Фильм, Прогресс-Студия
Жанр: боевик, детектив
Год выпуска: 2013 г.
Продолжительность: 00:45:00
Режиссер: Ким Дружинин, Ольга Кандидатова, Кирилл Капица-В ролях: Актеры: Андрей Смелов, Валерий Гришко, Игорь Иванов, Яков Кучеревский, Александр Блок, Арсений Мыцык, Татьяна Шахматова, Маргарита Бычкова, Андрей Аверков, Марьяна Анохина, Петр Капица, Кирилл Капица, Петр Журавлёв, Михаил Елисеев, Владимир Щербаков, Константин Телегин, Анна Вартанян, Анна Арефьева, Алексей Федотов, Илья Савельев, Екатерина Соколова, Леонид Ворон, Евгений Баранов, Сергей Шкарбан, Руслан Лукьянов, Елена Купрашевич, Роман Притула, Андрей Аксёнов, Максим Митяшин, Екатерина Белова, Михаил Касапов, Александр Удальцов, Ирина Марцинкевич, Евгений Анисимов, Александр Иванов-Описание: Российским спецслужбам удается сорвать планы владельца крупного оружейного концерна Хвостова, который решил ради прибыли спровоцировать в Европе новый виток гонки вооружений. Хвостов играет по-крупному - организует убийство несговорчивого российского спецпредставителя при НАТО и взрыв в штаб-квартире организации в Брюсселе. Синдбаду, Щепкину и Неверову придётся заняться этим делом. Также их команде придётся участвовать в обезвреживании международной преступной группы. Однажды генералу ФСБ Раздрогину назначил встречу осведомитель из Амстердама, который что-то знал о тайном грузе, плывущим в Петербург. Однако до встречи шпион не дожил. Теперь единственными зацепками для спецслужб служит sms-сообщение от него в одно слово: «Эскалибур» и знак английского фунта.-Качество видео: SATRip
Контейнер: AVI
Видео кодек: XviD
Аудио кодек: MP3
Видео: 704x400 (16:9), 25 fps, XviD build 50 ~1400 kbps avg, 0.20 bit/pixel
Аудио: 48 kHz, MPEG Layer 3, 2 ch, ~128.00 kbps avg
Cубтитры: отсутствуют
Формат : AVI
Формат/Информация : Audio Video Interleave
Профиль формата : OpenDML
Настройки формата : rec
Размер файла : 454 Мбайт
Продолжительность : 45 м.
Общий поток : 1400 Кбит/сек
Программа кодирования : AVI-Mux GUI 1.17.8.3, Feb 16 201019:42:50
Видео
Идентификатор : 0
Формат : MPEG-4 Visual
Профиль формата : Advanced [email protected]
Параметр BVOP формата : 2
Параметр QPel формата : Нет
Параметр GMC формата : Без точки перехода
Параметр матрицы формата : Default (MPEG)
Идентификатор кодека : XVID
Идентификатор кодека/Подсказка : XviD
Продолжительность : 45 м.
Битрейт : 1263 Кбит/сек
Ширина : 704 пикселя
Высота : 400 пикселей
Соотношение сторон : 16:9
Частота кадров : 25,000 кадров/сек
Цветовое пространство : YUV
Субдискретизация насыщенности : 4:2:0
Битовая глубина : 8 бит
Тип развёртки : Прогрессивная
Метод сжатия : С потерями
Бит/(Пиксели*Кадры) : 0.179
Размер потока : 409 Мбайт (90%)
Библиотека кодирования : XviD 64
Аудио
Идентификатор : 1
Формат : MPEG Audio
Версия формата : Version 1
Профиль формата : Layer 3
Режим : Joint stereo
Идентификатор кодека : 55
Идентификатор кодека/Подсказка : MP3
Продолжительность : 45 м.
Вид битрейта : Постоянный
Битрейт : 128 Кбит/сек
Каналы : 2 канала
Частота : 48,0 КГц
Метод сжатия : С потерями
Размер потока : 41,5 Мбайт (9%)
Выравнивание : Соединение по промежуткам
Продолжительность промежутка : 24 мс. (0,60 видеокадр)
Время предзагрузки промежутка : 192 мс.
Download / Скачать

Хотите скачать бесплатно? Зарегистрируйтесь на сайте (ссылка на регистрацию). Pirat.ca - самый быстрый торрент трекер в рунете!

Как скачивать  ·   Что такое торрент  ·   Рейтинг и ограничения



Последний раз редактировалось: h5n1 (2013-04-11 08:17), всего редактировалось 5 раз(а)

Пост 07-Апр-2013 10:19 (спустя 46 минут)

Топик был перенесен из форума Отечественные сериалы (Трюм) в форум Сериалы в эфире

kugesan
 

h5n1 ®

Гроза морей

483

Пост 07-Апр-2013 11:31 (спустя 1 час 58 минут)

[Q] 

20я серия, обновите торрент...

_________________
«Мы находимся здесь, чтобы внести свой вклад в этот мир. Иначе зачем мы здесь?» S.Jobs
[Профиль]  [ЛС] 

h5n1 ®

Гроза морей

483

Пост 08-Апр-2013 15:16 (спустя 1 день 3 часа)

[Q] 

21я серия, обновите торрент...

_________________
«Мы находимся здесь, чтобы внести свой вклад в этот мир. Иначе зачем мы здесь?» S.Jobs
[Профиль]  [ЛС] 

h5n1 ®

Гроза морей

483

Пост 09-Апр-2013 07:38 (спустя 16 часов)

[Q] 

22я серия, обновите торрент...

_________________
«Мы находимся здесь, чтобы внести свой вклад в этот мир. Иначе зачем мы здесь?» S.Jobs
[Профиль]  [ЛС] 

h5n1 ®

Гроза морей

483

Пост 10-Апр-2013 16:41 (спустя 1 день 9 часов)

[Q] 

23я серия, обновите торрент...

_________________
«Мы находимся здесь, чтобы внести свой вклад в этот мир. Иначе зачем мы здесь?» S.Jobs
[Профиль]  [ЛС] 

h5n1 ®

Гроза морей

483

Пост 11-Апр-2013 08:18 (спустя 15 часов)

[Q] 

24я серия, обновите торрент...сезон ок0нчен

_________________
«Мы находимся здесь, чтобы внести свой вклад в этот мир. Иначе зачем мы здесь?» S.Jobs
[Профиль]  [ЛС] 

dekin.60

Юнга

Пост 09-Апр-2014 21:28 (спустя 11 месяцев)

[Q] 

Торрент Время Синдбада 5 сезон - пустышка!
[Профиль]  [ЛС] 

fga952

Лоцман

Пост 14-Июн-2014 22:59 (спустя 2 месяца 5 дней)

[Q] 

h5n1, Встань на раздачу!!!
[Профиль]  [ЛС] 
Показать сообщения:    
Ответить на тему

Текущее время: Сегодня 14:13

Часовой пояс: GMT + 4



Вы не можете начинать темы
Вы не можете отвечать на сообщения
Вы не можете редактировать свои сообщения
Вы не можете удалять свои сообщения
Вы не можете голосовать в опросах
Вы не можете прикреплять файлы к сообщениям
Вы не можете скачивать файлы

▼ Вниз