ML
     
  Уважаемый Гость!
Вы можете поддержать проект и зарегистрироваться у наших партнеров - онлайн-стратегия MyLands. При регистрации в игре Вы получите код, который сможете активировать после регистрации на pirat.ca и получить 1000 дублонов.

Ваш код:
ee1288b6f7c09d9d2cb2a0f972aba30460ce9333
 
     

Склифосовский 2 (Склиф) / Сезон: 2 / Серии: 1-24 из 24 (Юлия Краснова) [2013 г., драма, трагикомедия, SATRip]

Ответить на тему
 
Автор
Сообщение

Пост 07-Апр-2013 09:56

[Q] 

h5n1

Гроза морей

-Склифосовский 2 (Склиф)-- Производство: кинокомпания "Русское"
Жанр: драма, трагикомедия
Год выпуска: 2013 г.
Продолжительность: 00:45:00
Режиссер: Юлия Краснова-В ролях: Максим Аверин, Ольга Красько, Марина Могилевская, Дмитрий Миллер, Ольга Павловец, Мария Куликова, Надежда Горелова, Владимир Жеребцов, Антон Эльдаров, Анна Якунина, Андрей Барило, Константин Юшкевич, Владимир Мельников, Ирина Баринова, Дмитрий Калистратов, Лаура Кеосаян, Владимир Довжик, Ксения Лаврова-Глинка и др.-Описание: Звезда больницы - блестящий хирург, ироничный циник и ловелас доктор Брагин - по-прежнему фанатично предан своей работе. Без его участия не обходится ни одна сложная операция. Он не привык отступать или пасовать перед трудностями. И всем известно, что даже в самых экстремальных ситуациях он никогда не теряет присутствия духа и не отходит от операционного стола, пока жизнь человека не окажется в безопасности.-Качество видео: SATRip
Контейнер: AVI
Видео кодек: DivX
Аудио кодек: MP3
Видео:720х400 (16:9), 25 fps, XviD build 50 ~1638 kbps avg, 0.20 bit/pixel
Аудио: 48 kHz, MPEG Layer 3, 2 ch, ~128.00 kbps avg
Cубтитры: отсутствуют
Формат : AVI
Формат/Информация : Audio Video Interleave
Размер файла : 450 Мбайт
Продолжительность : 38 м.
Общий поток : 1638 Кбит/сек
Программа кодирования : VirtualDubModRus 1.5.10.1 (build 2439/release)
Библиотека кодирования : VirtualDubMod build 2439/release
Видео
Идентификатор : 0
Формат : MPEG-4 Visual
Параметр BVOP формата : 1
Параметр QPel формата : Нет
Параметр GMC формата : Без точки перехода
Параметр матрицы формата : Default (H.263)
Режим смешивания : Сжатый битовый поток
Идентификатор кодека : DX50
Идентификатор кодека/Подсказка : DivX 5
Продолжительность : 38 м.
Битрейт : 1501 Кбит/сек
Ширина : 720 пикселей
Высота : 400 пикселей
Соотношение сторон : 16:9
Частота кадров : 25,000 кадров/сек
Цветовое пространство : YUV
Субдискретизация насыщенности : 4:2:0
Битовая глубина : 8 бит
Тип развёртки : Прогрессивная
Метод сжатия : С потерями
Бит/(Пиксели*Кадры) : 0.208
Размер потока : 412 Мбайт (92%)
Библиотека кодирования : DivX 6.8.5 (UTC 2009-08-20)
Аудио
Идентификатор : 1
Формат : MPEG Audio
Версия формата : Version 1
Профиль формата : Layer 2
Идентификатор кодека : 50
Продолжительность : 38 м.
Вид битрейта : Постоянный
Битрейт : 128 Кбит/сек
Каналы : 2 канала
Частота : 48,0 КГц
Метод сжатия : С потерями
Размер потока : 35,1 Мбайт (8%)
Выравнивание : Соединение по промежуткам
Продолжительность промежутка : 40 мс. (1,00 видеокадр)
Время предзагрузки промежутка : 504 мс.
Download / Скачать

Хотите скачать бесплатно? Зарегистрируйтесь на сайте (ссылка на регистрацию). Pirat.ca - самый быстрый торрент трекер в рунете!

Как скачивать  ·   Что такое торрент  ·   Рейтинг и ограничения



Последний раз редактировалось: h5n1 (2013-04-13 07:09), всего редактировалось 9 раз(а)

khvorovs

Шкипер

13

Пост 07-Апр-2013 10:27 (спустя 30 минут)

[Q] 

[Профиль]  [ЛС] 

h5n1 ®

Гроза морей

483

Пост 07-Апр-2013 10:39 (спустя 12 минут)

[Q] 

352085
у меня раздается- не берет никто))

_________________
«Мы находимся здесь, чтобы внести свой вклад в этот мир. Иначе зачем мы здесь?» S.Jobs
[Профиль]  [ЛС] 

Пост 07-Апр-2013 11:21 (спустя 42 минуты)

Топик был перенесен из форума Отечественные сериалы (Трюм) в форум Сериалы в эфире

kugesan
 

h5n1 ®

Гроза морей

483

Пост 08-Апр-2013 21:49 (спустя 1 день 11 часов)

[Q] 

13-15 добавлены, обновите торрент-файл

_________________
«Мы находимся здесь, чтобы внести свой вклад в этот мир. Иначе зачем мы здесь?» S.Jobs
[Профиль]  [ЛС] 

Sergi4

Гроза морей

Пост 08-Апр-2013 22:53 (спустя 1 час 3 минуты)

[Q] 

[Профиль]  [ЛС] 

h5n1 ®

Гроза морей

483

Пост 09-Апр-2013 20:34 (спустя 21 час)

[Q] 

16,17 добавлены, обновите торрент-файл

_________________
«Мы находимся здесь, чтобы внести свой вклад в этот мир. Иначе зачем мы здесь?» S.Jobs
[Профиль]  [ЛС] 

h5n1 ®

Гроза морей

483

Пост 10-Апр-2013 17:39 (спустя 21 час)

[Q] 

18 добавленa, обновите торрент-файл

_________________
«Мы находимся здесь, чтобы внести свой вклад в этот мир. Иначе зачем мы здесь?» S.Jobs
[Профиль]  [ЛС] 

h5n1 ®

Гроза морей

483

Пост 11-Апр-2013 07:19 (спустя 13 часов)

[Q] 

19-20 добавлены, обновите торрент-файл

_________________
«Мы находимся здесь, чтобы внести свой вклад в этот мир. Иначе зачем мы здесь?» S.Jobs
[Профиль]  [ЛС] 

h5n1 ®

Гроза морей

483

Пост 12-Апр-2013 07:15 (спустя 23 часа)

[Q] 

21-22 добавлены, обновите торрент-файл

_________________
«Мы находимся здесь, чтобы внести свой вклад в этот мир. Иначе зачем мы здесь?» S.Jobs
[Профиль]  [ЛС] 

h5n1 ®

Гроза морей

483

Пост 13-Апр-2013 07:10 (спустя 23 часа)

[Q] 

23-24 добавлены, обновите торрент-файл... сезон окончен

_________________
«Мы находимся здесь, чтобы внести свой вклад в этот мир. Иначе зачем мы здесь?» S.Jobs
[Профиль]  [ЛС] 

Пост 13-Апр-2013 10:26 (спустя 3 часа)

Топик был перенесен из форума Сериалы в эфире в форум Отечественные сериалы

kugesan
 

pp2141

Гроза морей

Пост 22-Ноя-2014 19:37 (спустя 1 год 7 месяцев)

[Q] 

Спасибо, понравилось Ку три раза
[Профиль]  [ЛС] 
Показать сообщения:    
Ответить на тему

Текущее время: Сегодня 18:20

Часовой пояс: GMT + 4



Вы не можете начинать темы
Вы не можете отвечать на сообщения
Вы не можете редактировать свои сообщения
Вы не можете удалять свои сообщения
Вы не можете голосовать в опросах
Вы не можете прикреплять файлы к сообщениям
Вы не можете скачивать файлы

▼ Вниз