ML
     
  Уважаемый Гость!
Вы можете поддержать проект и зарегистрироваться у наших партнеров - онлайн-стратегия MyLands. При регистрации в игре Вы получите код, который сможете активировать после регистрации на pirat.ca и получить 1000 дублонов.

Ваш код:
0ea1bf889af42fca5f67d0a391efb3400850ad7c
 
     

Задания особой важности. Операция «Тайфун» / Сезон: 1 / Серии: 1-4 из 4 (Петр Амелин) [2013 г., Военный, приключения, ВОВ, SATRip]

Ответить на тему
 
Автор
Сообщение

Пост 15-Апр-2013 17:12

[Q] 

cergo

Гроза морей

-Задания особой важности. Операция «Тайфун»(Серии: 1-4 из 4)-- Производство: Россия, ГРИН-ФИЛЬМ, "ПРИОР Продакшн", по заказу телеканала "Россия-1"
Жанр: Военный, приключения, ВОВ
Год выпуска: 2013 г.
Продолжительность: 4 x ~ 00:44:36
Мировая премьера: 14 апреля 2013
Режиссер: Петр Амелин
-В ролях: Эдуард Трухменёв, Мария Куликова, Сергей Баталов, Иван Дубровский, Данила Воропаев, Елена Радевич, Михаил Елисеев, Андрей Аксёнов-Описание: Великая Отечественная война. Группа советских разведчиков-диверсантов выполняет задания особой важности. Первое задание - уничтожить стратегические склады горючего, захваченные немцами во время стремительного наступления.-
Качество видео: SATRip
Контейнер: AVI
Видео кодек: XviD
Аудио кодек: MP3
Видео: 720x400 (1.80:1), 25 fps, XviD build 65 ~1429 kbps avg, 0.20 bit/pixel
Аудио: 48 kHz, MPEG Layer 3, 2 ch, ~128.00 kbps avg
Cубтитры: отсутствуют
Общее
Полное имя : D:\Архив\ФИЛЬМЫ\ZOV.Operaziya.Tayfun.2013.XviD.SATRip.avi\ZOV.Operaziya.Tayfun.(1.serija.iz.4).2013.XviD.SATRip.avi
Формат : AVI
Формат/Информация : Audio Video Interleave
Размер файла : 500 Мбайт
Продолжительность : 44 м.
Общий поток : 1568 Кбит/сек
Программа кодирования : VirtualDubMod 1.5.10.2 (build 2540/release)
Библиотека кодирования : VirtualDubMod build 2540/release
Видео
Идентификатор : 0
Формат : MPEG-4 Visual
Профиль формата : Advanced [email protected]
Параметр BVOP формата : 2
Параметр QPel формата : Нет
Параметр GMC формата : Без точки перехода
Параметр матрицы формата : Default (MPEG)
Идентификатор кодека : XVID
Идентификатор кодека/Подсказка : XviD
Продолжительность : 44 м.
Битрейт : 1430 Кбит/сек
Ширина : 720 пикселей
Высота : 400 пикселей
Соотношение сторон : 16:9
Частота кадров : 25,000 кадров/сек
Цветовое пространство : YUV
Субдискретизация насыщенности : 4:2:0
Битовая глубина : 8 бит
Тип развёртки : Прогрессивная
Метод сжатия : С потерями
Бит/(Пиксели*Кадры) : 0.199
Размер потока : 456 Мбайт (91%)
Библиотека кодирования : XviD 65
Аудио
Идентификатор : 1
Формат : MPEG Audio
Версия формата : Version 1
Профиль формата : Layer 3
Режим : Joint stereo
Идентификатор кодека : 55
Идентификатор кодека/Подсказка : MP3
Продолжительность : 44 м.
Вид битрейта : Постоянный
Битрейт : 128 Кбит/сек
Каналы : 2 канала
Частота : 48,0 КГц
Метод сжатия : С потерями
Размер потока : 40,8 Мбайт (8%)
Выравнивание : Соединение по промежуткам
Продолжительность промежутка : 40 мс. (1,00 видеокадр)
Время предзагрузки промежутка : 504 мс.
Download / Скачать

Хотите скачать бесплатно? Зарегистрируйтесь на сайте (ссылка на регистрацию). Pirat.ca - самый быстрый торрент трекер в рунете!

Как скачивать  ·   Что такое торрент  ·   Рейтинг и ограничения

Пост 15-Апр-2013 20:43 (спустя 3 часа)

Топик был перенесен из форума Отечественные сериалы (Трюм) в форум Отечественные сериалы

kugesan
 

kinstintin

Гроза морей

Пост 16-Апр-2013 21:58 (спустя 1 день 4 часа)

[Q] 

Спасибо!
[Профиль]  [ЛС] 

cergo ®

Гроза морей

20035

Пост 17-Апр-2013 16:35 (спустя 18 часов)

[Q] 

kinstintin, aa az
[Профиль]  [ЛС] 

pwsnik

Гроза морей

Пост 17-Апр-2013 16:47 (спустя 11 минут)

[Q] 

За труд большое спасибо, а вот о фильме могу сказать следующее:
За всю свою жизнь режиссер не прочитал ни одной книги, и не посмотрел ни одного советского фильма про войну.
[Профиль]  [ЛС] 

lis777

Корсар

Пост 18-Апр-2013 23:09 (спустя 1 день 6 часов)

[Q] 

[Профиль]  [ЛС] 

jofrei53

Корсар

Пост 07-Май-2014 21:43 (спустя 1 год)

[Q] 

Спасибо! С Днём Победы! НИЗКИЙ ПОКЛОН И СЛАВА ВЕТЕРАНАМ!!! Спасибо!!! Автору респект!!!
[Профиль]  [ЛС] 

cergo ®

Гроза морей

20035

Пост 07-Май-2014 22:01 (спустя 18 минут)

[Q] 

532000Спасибо! С Днём Победы! НИЗКИЙ ПОКЛОН И СЛАВА ВЕТЕРАНАМ!!!
aa az
[Профиль]  [ЛС] 
Показать сообщения:    
Ответить на тему

Текущее время: Сегодня 00:35

Часовой пояс: GMT + 4



Вы не можете начинать темы
Вы не можете отвечать на сообщения
Вы не можете редактировать свои сообщения
Вы не можете удалять свои сообщения
Вы не можете голосовать в опросах
Вы не можете прикреплять файлы к сообщениям
Вы не можете скачивать файлы

▼ Вниз