ML
     
  Уважаемый Гость!
Вы можете поддержать проект и зарегистрироваться у наших партнеров - онлайн-стратегия MyLands. При регистрации в игре Вы получите код, который сможете активировать после регистрации на pirat.ca и получить 1000 дублонов.

Ваш код:
ba41f7961e0b4717aed6a401d955262223b8f6c4
 
     

Кремень. Освобождение «Его правда - его оружие» / Сезон: 2 / Серии: 1-4 из 4 (Владимир Епифанцев) [2013 г., боевик, SATRip]

Ответить на тему
 
Автор
Сообщение

Пост 20-Апр-2013 22:24

[Q] 

cergo

Гроза морей

-Кремень. Освобождение«Его правда - его оружие»Серии: 1-4 из 4-- Производство: Россия
Жанр: боевик
Год выпуска: 2013 г.
Продолжительность: 4 х ~ 00:53:54
Режиссер: Владимир Епифанцев
-В ролях: Владимир Епифанцев, Денис Яковлев, Анастасия Веденская, Инна Хотеенкова, Сергей Векслер, Михаил Горевой, Сергей Фролов, Максим Браматкин, Анна Цуканова-Котт, Дмитрий Горевой, Иван Добронравов, Виктория Адельфина, Елизавета Поплавская-Описание: Отставной майор Андрей Шаманов, после долгих лет службы, учится жить мирной жизнью. Но когда бывшим коллегам требуется помощь, даже счастье с любимой женщиной не способно заставить его отказаться от опасного задания: расследовать причину гибели группы спецназа, проводившей учение в горах, где скрывается группировка контрабандистов. В ходе работы Андрея ждут испытания: преступники похищают его возлюбленную и шантажируют героя, на что опытный военный Шаманов решает ответить штурмом. Удачно спланировав операцию, Андрей находит свою Настю, освобождая вместе с ней еще нескольких заложников. Но главная опасность впереди - преступники не позволят Андрею, а также нескольким свидетелям просто так сбежать с тайной базы.-
Качество видео: SATRip
Контейнер: AVI
Видео кодек: XviD
Аудио кодек: MP3
Видео: 704x384 (1.83:1), 25 fps, XviD build 46 ~1150 kbps avg, 0.17 bit/pixel
Аудио: 48 kHz, MPEG Layer 3, 2 ch, ~128.00 kbps avg
Cубтитры: отсутствуют
Общее
Полное имя : D:\Архив\ФИЛЬМЫ\Kremen.Oswobozdenie.2013.SATRip\Kremen.Osvobozdenie.(1.serija).2013.XviD.SATRip.avi
Формат : AVI
Формат/Информация : Audio Video Interleave
Размер файла : 497 Мбайт
Продолжительность : 53 м.
Общий поток : 1288 Кбит/сек
Программа кодирования : VirtualDubMod 1.5.10.2 (build 2540/release)
Библиотека кодирования : VirtualDubMod build 2540/release
Видео
Идентификатор : 0
Формат : MPEG-4 Visual
Профиль формата : [email protected]
Параметр BVOP формата : Нет
Параметр QPel формата : Нет
Параметр GMC формата : Без точки перехода
Параметр матрицы формата : Default (H.263)
Идентификатор кодека : XVID
Идентификатор кодека/Подсказка : XviD
Продолжительность : 53 м.
Битрейт : 1150 Кбит/сек
Ширина : 704 пикселя
Высота : 384 пикселя
Соотношение сторон : 1,85:1
Частота кадров : 25,000 кадров/сек
Цветовое пространство : YUV
Субдискретизация насыщенности : 4:2:0
Битовая глубина : 8 бит
Тип развёртки : Прогрессивная
Метод сжатия : С потерями
Бит/(Пиксели*Кадры) : 0.170
Размер потока : 444 Мбайт (89%)
Библиотека кодирования : XviD 1.1.2 (UTC 2006-11-01)
Аудио
Идентификатор : 1
Формат : MPEG Audio
Версия формата : Version 1
Профиль формата : Layer 3
Режим : Joint stereo
Расширение режима : MS Stereo
Идентификатор кодека : 55
Идентификатор кодека/Подсказка : MP3
Продолжительность : 53 м.
Вид битрейта : Постоянный
Битрейт : 128 Кбит/сек
Каналы : 2 канала
Частота : 48,0 КГц
Метод сжатия : С потерями
Размер потока : 49,4 Мбайт (10%)
Выравнивание : Разделение по промежуткам
Продолжительность промежутка : 40 мс. (1,00 видеокадр)
Время предзагрузки промежутка : 500 мс.
Библиотека кодирования : LAME3.98
Download / Скачать

Хотите скачать бесплатно? Зарегистрируйтесь на сайте (ссылка на регистрацию). Pirat.ca - самый быстрый торрент трекер в рунете!

Как скачивать  ·   Что такое торрент  ·   Рейтинг и ограничения



Последний раз редактировалось: cergo (2013-04-21 09:18), всего редактировалось 3 раз(а)

cergo ®

Гроза морей

20061

Пост 20-Апр-2013 23:35 (спустя 1 час 11 минут)

[Q] 

добавлена 3 серия.
[Профиль]  [ЛС] 

Пост 20-Апр-2013 23:42 (спустя 6 минут)

Топик был перенесен из форума Отечественные сериалы (Трюм) в форум Сериалы в эфире

kugesan
 

cergo ®

Гроза морей

20061

Пост 21-Апр-2013 09:16 (спустя 9 часов)

[Q] 

добавлена 4 серия.
[Профиль]  [ЛС] 

klas14

Корсар

Пост 21-Апр-2013 10:12 (спустя 55 минут)

[Q] 


_________________
[Профиль]  [ЛС] 

Wolf111

57126

Пост 21-Апр-2013 11:05 (спустя 53 минуты)

[Q] 

[Профиль]  [ЛС] 

SCORPION.

Морской Волк

Пост 21-Апр-2013 11:24 (спустя 18 минут)

[Q] 

[Профиль]  [ЛС] 

got70

Легенда

752

Пост 21-Апр-2013 11:34 (спустя 10 минут)

[Q] 


_________________
Добро непременно победит зло!Непременно...Затем поставит на колени,и зверски УБЬЁТ!
[Профиль]  [ЛС] 

cergo ®

Гроза морей

20061

Пост 21-Апр-2013 16:08 (спустя 4 часа)

[Q] 

klas14, Wolf111, SCORPION., got70, allexxxv, aa az
[Профиль]  [ЛС] 

got70

Легенда

752

Пост 22-Апр-2013 21:52 (спустя 1 день 5 часов)

[Q] 

Понравилось!На мой взгляд лучше чем первый "Кремень" Шикарна фраза-АД-МОЙ ДОМ!

_________________
Добро непременно победит зло!Непременно...Затем поставит на колени,и зверски УБЬЁТ!
[Профиль]  [ЛС] 

allexxxv

Морской Волк

Пост 25-Апр-2013 19:56 (спустя 2 дня 22 часа)

[Q] 

[Профиль]  [ЛС] 

pp2141

Гроза морей

Пост 14-Май-2013 09:12 (спустя 18 дней)

[Q] 

[Профиль]  [ЛС] 

Винодел

Пост 09-Сен-2013 21:43 (спустя 3 месяца 26 дней)

[Q] 

1 часть очень интересная а вторая епифанцев такое чувство паркуром увлекаеться пригает везде так быстро вообщем кино интересное.
[Профиль]  [ЛС] 

zhurik1983

Лоцман

Пост 22-Ноя-2013 07:37 (спустя 2 месяца 12 дней)

[Q] 

Рембо отдыхает! Классный фильмец! Одобрямс!
[Профиль]  [ЛС] 

AleKKsey18

Лоцман

Пост 07-Апр-2014 18:47 (спустя 4 месяца 15 дней)

[Q] 

Первый сезон понравился, скачал второй, а там такая шляпа! Не сюжет а , черт пойми что! В общем кому нравится тупая стрельба, качайте.... а так для меня фильм умер на первом сезоне! оценка полное говно......
[Профиль]  [ЛС] 

kisu

Гроза морей

Пост 26-Окт-2014 19:07 (спустя 6 месяцев 19 дней)

[Q] 

качаю!надеюсь не хуже первого фильма!
[Профиль]  [ЛС] 

Dr.Аlex

Штурман

Пост 15-Янв-2015 00:25 (спустя 2 месяца 19 дней)

[Q] 

Спасибо! Бочку уже качу))) Лови бочку Всем качать!!!

_________________
[Профиль]  [ЛС] 

shelby290

Флибустьер

Пост 14-Мар-2015 16:43 (спустя 1 месяц 30 дней)

[Q] 

Первый сезон был интерестней
[Профиль]  [ЛС] 

grosboy

Флибустьер

Пост 30-Мар-2015 15:07 (спустя 15 дней)

[Q] 

Хороший нереальный боевичёк. Первый сезон был лучше.

_________________
Щастье есть - его не может не быть...
[Профиль]  [ЛС] 

Victorsalata

Корсар

Пост 17-Авг-2015 10:43 (спустя 4 месяца 17 дней)

[Q] 

Смотрел с удовольствием.
[Профиль]  [ЛС] 
Показать сообщения:    
Ответить на тему

Текущее время: Сегодня 14:46

Часовой пояс: GMT + 4



Вы не можете начинать темы
Вы не можете отвечать на сообщения
Вы не можете редактировать свои сообщения
Вы не можете удалять свои сообщения
Вы не можете голосовать в опросах
Вы не можете прикреплять файлы к сообщениям
Вы не можете скачивать файлы

▼ Вниз