ML
     
  Уважаемый Гость!
Вы можете поддержать проект и зарегистрироваться у наших партнеров - онлайн-стратегия MyLands. При регистрации в игре Вы получите код, который сможете активировать после регистрации на pirat.ca и получить 1000 дублонов.

Ваш код:
0ea1bf889af42fca5f67d0a391efb3400850ad7c
 
     

Легенды о Круге / Серии: 1-4 из 4 (Тимур Кабулов) [2013 г., Драма, биографический, SATRip]

Ответить на тему
 
Автор
Сообщение

Пост 22-Апр-2013 19:38

[Q] 

dimkoba

- Легенды о Круге --«Его жизнь была яркой и насыщенной: концерты, гастроли, выход новых песен.»
Производство: Россия, «Yellow, Black and White» при участии R-media, «СТС»
Жанр: Драма, биографический
Год выпуска: 2013 г.
Продолжительность: 4 x ~ 00:44:20
Российская премьера: 22 апреля 2013
Режиссер: Тимур Кабулов-В ролях: Юрий Кузнецов-Таeжный, Ольга Филимонова, Дарья Калмыкова, Диана Корсс, Александр Домогаров, Иван Добронравов, Александр Кузнецов, Сергей Газаров-Описание: Михаил Круг - известный автора и исполнитель песен. Его жизнь была яркой и насыщенной: концерты, гастроли, выход новых песен. Он очень любил друзей, хорошую компанию, жену и детей. Но смерть настигла его в самом расцвете творческой славы. Тайна гибели Михаила Круга до сих пор не раскрыта, убийца не найден. Это случилось почти десять лет назад, а песни его живут и по сей день.-
Качество видео: SATRip
Контейнер: AVI
Видео кодек: DivX
Аудио кодек: MP3
Видео: 704x400 (1.76:1), 25 fps, DivX Codec 5.x or 6.x, ~1601kbps avg, 0.23 bit/pixel
Аудио: MPEG Layer 3, 48 kHz, 2 ch, 128.00 kbps avg
Cубтитры: отсутствуют
Полное имя : D:\загрузка\Legendi.o.Kruge[Pirat.ca]\Istorii.o.pevce.01.avi
Формат : AVI
Формат/Информация : Audio Video Interleave
Размер файла : 538 Мбайт
Продолжительность : 43 м.
Общий поток : 1738 Кбит/сек
Библиотека кодирования : VirtualDub-MPEG2 build 24600/release
Видео
Идентификатор : 0
Формат : MPEG-4 Visual
Параметр BVOP формата : Да
Параметр QPel формата : Нет
Параметр GMC формата : Без точки перехода
Параметр матрицы формата : Default (H.263)
Идентификатор кодека : DX50
Идентификатор кодека/Подсказка : DivX 5
Продолжительность : 43 м.
Битрейт : 1601 Кбит/сек
Ширина : 704 пикселя
Высота : 400 пикселей
Соотношение сторон : 16:9
Частота кадров : 25,000 кадров/сек
Цветовое пространство : YUV
Субдискретизация насыщенности : 4:2:0
Битовая глубина : 8 бит
Тип развёртки : Прогрессивная
Метод сжатия : С потерями
Бит/(Пиксели*Кадры) : 0.227
Размер потока : 495 Мбайт (92%)
Библиотека кодирования : Intel(R) MPEG-4 encoder based on Intel(R) IPP 6.1 build 137.20[6.1.137.763]
Аудио
Идентификатор : 1
Формат : MPEG Audio
Версия формата : Version 1
Профиль формата : Layer 3
Режим : Joint stereo
Расширение режима : MS Stereo
Идентификатор кодека : 55
Идентификатор кодека/Подсказка : MP3
Продолжительность : 43 м.
Вид битрейта : Постоянный
Битрейт : 128 Кбит/сек
Каналы : 2 канала
Частота : 48,0 КГц
Метод сжатия : С потерями
Размер потока : 39,6 Мбайт (7%)
Выравнивание : Разделение по промежуткам
Продолжительность промежутка : 40 мс. (1,00 видеокадр)
Время предзагрузки промежутка : 500 мс.
Библиотека кодирования : LAME3.98.2
Вот все таки и вышел долгожданный сериал о «Короле русского шансона» Михаиле Круге, я как фанат его творчества посмотрел фильм и он мне понравился.
В Фильме происходит пересказ его жизни конечно же не с полной точностью, режиссер предлагает свою версию гибели шансонье. Сюжет фильма таков сценарист Матвей приезжает в Тверь что бы написать сценарий про Михаила Круга, на протяжении фильма он встречается со знакомыми и близкими людьми Круга, из этих бесед он узнает разные истории из его жизни.
Актер который сыграл Михаила, Юрий Кузнецов-Таёжный на мой взгляд очень похож на него, из его интервью я узнал что он 5 месяцев работал над собой, над манерами, жестами, набрал 16 килограмм веса, я считаю что с этой ролью он справился на все сто, за что ему огромное спасибо. Ни чего сказать про других персонажей я не могу, но если вы смотрели «Пусть говорят» то например жена Александра Северного роль которого исполнил Владимир Зайцев призналась что они ни чем не похожи, так как Александр Северный не позволил бы себе разговаривать так с людьми как это показано в фильме.
Хочу под итожить, что фильм придется не всем любителям Михаила круга, кто то скажет что Михаил не был таким как это показано в фильме, кто то наоборот кивнет головой и скажет что да он был таким. По моему мнению роль Михаила Круга исполнена очень достойно как я уже и говорил. Во общем смотрите фильм делайте свои выводы. Вечная память Михаилу Кругу.
Download / Скачать

Хотите скачать бесплатно? Зарегистрируйтесь на сайте (ссылка на регистрацию). Pirat.ca - самый быстрый торрент трекер в рунете!

Как скачивать  ·   Что такое торрент  ·   Рейтинг и ограничения



Последний раз редактировалось: dimkoba (2013-04-23 21:49), всего редактировалось 2 раз(а)

ALEKSANDR_1968

Морской Волк

Пост 22-Апр-2013 20:10 (спустя 32 минуты)

[Q] 

[Профиль]  [ЛС] 

delmonte

Юнга

Пост 22-Апр-2013 23:28 (спустя 3 часа)

[Q] 

Спасибо!
[Профиль]  [ЛС] 

трактор1224

Морской Волк

Пост 23-Апр-2013 06:48 (спустя 7 часов)

[Q] 

посмотрим...

_________________
ну вы блин даёте....
[Профиль]  [ЛС] 

dimkoba ®

35102

Пост 23-Апр-2013 21:49 (спустя 15 часов)

[Q] 

+2 серии

_________________
[Профиль]  [ЛС] 

Пост 23-Апр-2013 21:59 (спустя 10 минут)

Топик был перенесен из форума Сериалы в эфире в форум Отечественные сериалы

kugesan
 

Voland57

Корсар

Пост 30-Апр-2013 22:18 (спустя 7 дней)

[Q] 

Спасибо!
[Профиль]  [ЛС] 

pp2141

Гроза морей

Пост 26-Май-2013 10:48 (спустя 25 дней)

[Q] 

[Профиль]  [ЛС] 

UA4HQW

Флибустьер

2528

Пост 20-Янв-2014 13:58 (спустя 7 месяцев 25 дней)

[Q] 

Хороший фильм. Посмотрел на одном дыхании.
Автору респект!!!
[Профиль]  [ЛС] 

Nik DeBori

Морской Волк

Пост 01-Мар-2014 20:52 (спустя 1 месяц 12 дней)

[Q] 

Спасибо!!! Лови бочку
[Профиль]  [ЛС] 

HekT0

Лоцман

Пост 27-Дек-2014 03:30 (спустя 9 месяцев 25 дней)

[Q] 

спасибо, до сих пор раздающему !!!
пысы: первый камент )
[Профиль]  [ЛС] 
Показать сообщения:    
Ответить на тему

Текущее время: Сегодня 00:38

Часовой пояс: GMT + 4



Вы не можете начинать темы
Вы не можете отвечать на сообщения
Вы не можете редактировать свои сообщения
Вы не можете удалять свои сообщения
Вы не можете голосовать в опросах
Вы не можете прикреплять файлы к сообщениям
Вы не можете скачивать файлы

▼ Вниз