ML
     
  Уважаемый Гость!
Вы можете поддержать проект и зарегистрироваться у наших партнеров - онлайн-стратегия MyLands. При регистрации в игре Вы получите код, который сможете активировать после регистрации на pirat.ca и получить 1000 дублонов.

Ваш код:
73640f24f8a0f579e128ea7346fd2db2b1009143
 
     

Мотыльки (Виталий Воробьев) [1 - 4 серия из 4] [2013 г., драма, SATRip]

Ответить на тему
 
Автор
Сообщение

Пост 28-Апр-2013 18:31

[Q] 

aleksejj

Корсар

-Мотыльки «Борьба любви и смерти»-- Производство: Украина, FILM.UA
Режиссер: Виталий Воробьев
Жанр: драма
Год выпуска: 2013 г.
Продолжительность: 4 х~00:50:00
В ролях: Юрий Борисов, Мария Поезжаева, Евгения Лоза, Андрей Казаков, Юрий Назаров, Юлия Рутберг, Артём Ткаченко, Максим Заусалин, Тимур Боканча, Олег Примогенов-Описание: История любви двух молодых людей, 17-летней девушки и солдата, на фоне Чернобыльской атомной катастрофы.
| КиноПоиск | Сэмпл |-Качество видео: SATRip
Контейнер: AVI
Видео кодек: XviD
Аудио кодек: MP3
Видео: 704x400 (1.76:1), 25 fps, XviD build 65 ~1408 kbps avg, 0.20 bit/pixel
Аудио: 48 kHz, MPEG Layer 3, 2 ch, ~128.00 kbps avg
Cубтитры: отсутствуют
Код:
Общее
Полное имя                       : D:\Films\Motylki.2013.XviD.SATRip\Motylki.(1.serija.iz.4).2013.XviD.SATRip.avi
Формат                           : AVI
Формат/Информация                : Audio Video Interleave
Размер файла                     : 550 Мбайт
Продолжительность                : 49 м.
Общий поток                      : 1546 Кбит/сек
Программа кодирования            : VirtualDubMod 1.5.10.2 (build 2540/release)
Библиотека кодирования           : VirtualDubMod build 2540/release
Видео
Идентификатор                    : 0
Формат                           : MPEG-4 Visual
Профиль формата                  : Advanced [email protected]
Параметр BVOP формата            : 2
Параметр QPel формата            : Нет
Параметр GMC формата             : Без точки перехода
Параметр матрицы формата         : Default (MPEG)
Идентификатор кодека             : XVID
Идентификатор кодека/Подсказка   : XviD
Продолжительность                : 49 м.
Битрейт                          : 1409 Кбит/сек
Ширина                           : 704 пикс.
Высота                           : 400 пикс.
Соотношение сторон               : 16:9
Частота кадров                   : 25,000 кадр/сек
Цветовое пространство            : YUV
Подвыборка цветности             : 4:2:0
Битовая глубина                  : 8 бит
Тип развёртки                    : Прогрессивная
Метод сжатия                     : С потерями
Бит/(Пиксели*Кадры)              : 0.200
Размер потока                    : 501 Мбайт (91%)
Библиотека кодирования           : XviD 65
Аудио
Идентификатор                    : 1
Формат                           : MPEG Audio
Версия формата                   : Version 1
Профиль формата                  : Layer 3
Режим                            : Joint stereo
Расширение режима                : MS Stereo
Идентификатор кодека             : 55
Идентификатор кодека/Подсказка   : MP3
Продолжительность                : 49 м.
Вид битрейта                     : Постоянный
Битрейт                          : 128 Кбит/сек
Канал(ы)                         : 2 канала(ов)
Частота                          : 48,0 КГц
Метод сжатия                     : С потерями
Размер потока                    : 45,5 Мбайт (8%)
Выравнивание                     : Соединение по промежуткам
Продолжительность промежутка     : 40  мс. (1,00 видеокадр)
Время предзагрузки промежутка    : 504 ms
Download / Скачать

Хотите скачать бесплатно? Зарегистрируйтесь на сайте (ссылка на регистрацию). Pirat.ca - самый быстрый торрент трекер в рунете!

Как скачивать  ·   Что такое торрент  ·   Рейтинг и ограничения

Пост 28-Апр-2013 21:49 (спустя 3 часа)

Топик был перенесен из форума Отечественные сериалы (Трюм) в форум Отечественные сериалы

kugesan
 

Stalker_29

Корсар

Пост 29-Апр-2013 10:16 (спустя 15 часов)

[Q] 

[Профиль]  [ЛС] 

Stalker_29

Корсар

Пост 29-Апр-2013 10:24 (спустя 7 минут)

[Q] 

[Профиль]  [ЛС] 

savatey

Корсар

Пост 29-Апр-2013 12:13 (спустя 1 час 49 минут)

[Q] 

Спасибо! Сильный фильм.

_________________
[Профиль]  [ЛС] 

Stalker_29

Корсар

Пост 29-Апр-2013 13:27 (спустя 1 час 13 минут)

[Q] 

[Профиль]  [ЛС] 

ntvsx

Шкипер

Пост 17-Май-2013 21:21 (спустя 18 дней)

[Q] 

Неоднозначный фильм... остаюсь на раздаче.
[Профиль]  [ЛС] 

rammashtain

Лоцман

1

Пост 16-Июн-2013 21:42 (спустя 30 дней)

[Q] 

"Титаник"просто отдыхает! Мы живём в самой лучшей стране! Где дети сразу превращаются в стариков(если им повезёт)
[Профиль]  [ЛС] 

ku_vol

Морской Волк

Пост 20-Июн-2013 17:09 (спустя 3 дня)

[Q] 

После голливудских супер-героев, от которых уже тошнит, этот фильм смотрел с удовольствием, хохлы сделали очень хороший фильм, а критики всегда найдутся.
[Профиль]  [ЛС] 

doc1

Лоцман

Пост 22-Авг-2013 13:04 (спустя 2 месяца 1 день)

[Q] 

Сильный фильм Супер!
[Профиль]  [ЛС] 

viktor41

Шкипер

Пост 15-Окт-2013 19:19 (спустя 1 месяц 24 дня)

[Q] 

Хорошая.Сильная драма ! Всем качать!!! Спасибо!!!
[Профиль]  [ЛС] 

Sergo999

Лоцман

Пост 26-Апр-2014 11:23 (спустя 6 месяцев 10 дней)

[Q] 

Серьезный фильм!
[Профиль]  [ЛС] 

sergej 1340

Морской Волк

Пост 26-Апр-2014 20:51 (спустя 9 часов)

[Q] 

хороший фильм!спасибо!!!
[Профиль]  [ЛС] 

shram15

Лоцман

Пост 30-Июн-2014 21:49 (спустя 2 месяца 4 дня)

[Q] 

Хороший фильм!Советую всем посмотреть!Вечная память вам ликвидаторам аварии на чернобыльской аэс! Раздающему респект! Раздающему респект!
[Профиль]  [ЛС] 

LEO32

Морской Волк

Пост 25-Авг-2014 12:17 (спустя 1 месяц 24 дня)

[Q] 

Спасибо!!! Этот фильм смотрел с удовольствием!
[Профиль]  [ЛС] 

Vintorezov REG 39

Легенда

176

Пост 08-Окт-2014 23:40 (спустя 1 месяц 14 дней)

[Q] 

Хороший фильм спасибо .
[Профиль]  [ЛС] 
Показать сообщения:    
Ответить на тему

Текущее время: Сегодня 22:35

Часовой пояс: GMT + 4



Вы не можете начинать темы
Вы не можете отвечать на сообщения
Вы не можете редактировать свои сообщения
Вы не можете удалять свои сообщения
Вы не можете голосовать в опросах
Вы не можете прикреплять файлы к сообщениям
Вы не можете скачивать файлы

▼ Вниз