ML
     
  Уважаемый Гость!
Вы можете поддержать проект и зарегистрироваться у наших партнеров - онлайн-стратегия MyLands. При регистрации в игре Вы получите код, который сможете активировать после регистрации на pirat.ca и получить 1000 дублонов.

Ваш код:
0af2e2107bc9b5dd5ac2c09f9fc25e1a77c43887
 
     

Убить Дрозда / Серии: 1-4 из 4 (Дмитрий Герасимов) [2013 г., Фантастическая комедия, SATRip]

Ответить на тему
 
Автор
Сообщение

Пост 02-Май-2013 09:05

[Q] 

cergo

Гроза морей

-Убить ДроздаСерии: 1-4 из 4-- Производство: Россия, Централ Партнершип
Жанр: Фантастическая комедия
Год выпуска: 2013 г.
Продолжительность: 4 x ~00:44:20
Российская премьера: 1 мая 2013 (ТВЦ)
Режиссер: Дмитрий Герасимов
-
Даниил Спиваковский, Анна Снаткина, Вадим Колганов, Александр Рапопорт, Ефим Банчик, Владимир Кошевой, Юрий Воробьев, Марина Куделинская, Александр Терешко, Владимир Щербаков, Олег Морозов, Михаил Дорожкин, Наталья Унгард, Наталья Тетенова, Вадим Андреев, Василий Савинов, Евгений Воскресенский, Виктор Логинов, Сергей Лобынцев, Александр Пальчиков-
Тихий, занудливый и недотепистый агент по недвижимости Ярик Дрозд даже не подозревал, что заурядная командировка, в которую его отправил шеф для покупки здания местного планетария, обернется для него сущим кошмаром. Ведь в тот же город в то же самое время для участия в том же аукционе отправился еще один Дрозд – спецагент силового ведомства – красивая, жестокая, решительная женщина по имени Жанна. Ведь по самым свежим данным в фундаменте планетария спрятано – ни много, ни мало – золото Колчака, таинственно исчезнувшее в начале прошлого века. Дроздов, разумеется, перепутали. Ярик угодил в стальные объятия силовиков, а Жанну гостеприимно встретил риэлтор. Но на этом злоключения героев не заканчиваются. Им обоим предстоит сделать «шаг во времени» и попасть в 1919 год – в самый разгар гражданской войны. Жанне очень пригодится ее умение драться и метко стрелять, а Ярику сам Бог велел блеснуть эрудицией.-

Качество видео: SATRip
Контейнер: AVI
Видео кодек: XviD
Аудио кодек: MP3
Видео: 720x400 (1.80:1), 25 fps, XviD build 50 ~1432 kbps avg, 0.20 bit/pixel
Аудио: 48 kHz, MPEG Layer 3, 2 ch, ~192.00 kbps avg
Cубтитры: отсутствуют

Общее
Полное имя : D:\Ubit.Drozda.2013.SATRip.avi
Формат : AVI
Формат/Информация : Audio Video Interleave
Размер файла : 602 Мбайт
Продолжительность : 51 м.
Общий поток : 1635 Кбит/сек
Программа кодирования : VirtualDubMod 1.5.10.3 | www.virtualdub-fr.org || (build 2550/release)
Библиотека кодирования : VirtualDubMod build 2550/release
Видео
Идентификатор : 0
Формат : MPEG-4 Visual
Профиль формата : Advanced [email protected]
Параметр BVOP формата : 1
Параметр QPel формата : Нет
Параметр GMC формата : Без точки перехода
Параметр матрицы формата : Default (H.263)
Идентификатор кодека : XVID
Идентификатор кодека/Подсказка : XviD
Продолжительность : 51 м.
Битрейт : 1433 Кбит/сек
Ширина : 720 пикселей
Высота : 400 пикселей
Соотношение сторон : 16:9
Частота кадров : 25,000 кадров/сек
Цветовое пространство : YUV
Субдискретизация насыщенности : 4:2:0
Битовая глубина : 8 бит
Тип развёртки : Прогрессивная
Метод сжатия : С потерями
Бит/(Пиксели*Кадры) : 0.199
Размер потока : 528 Мбайт (88%)
Библиотека кодирования : XviD 1.2.1 (UTC 2008-12-04)
Аудио
Идентификатор : 1
Формат : MPEG Audio
Версия формата : Version 1
Профиль формата : Layer 3
Идентификатор кодека : 55
Идентификатор кодека/Подсказка : MP3
Продолжительность : 51 м.
Вид битрейта : Постоянный
Битрейт : 192 Кбит/сек
Каналы : 2 канала
Частота : 48,0 КГц
Метод сжатия : С потерями
Размер потока : 70,7 Мбайт (12%)
Выравнивание : Соединение по промежуткам
Продолжительность промежутка : 40 мс. (1,00 видеокадр)
Время предзагрузки промежутка : 504 мс.
Библиотека кодирования : LAME3.98r
Настройки программы : -m s -V 4 -q 2 -lowpass 18.6 -b 192
Download / Скачать

Хотите скачать бесплатно? Зарегистрируйтесь на сайте (ссылка на регистрацию). Pirat.ca - самый быстрый торрент трекер в рунете!

Как скачивать  ·   Что такое торрент  ·   Рейтинг и ограничения



Последний раз редактировалось: cergo (2013-05-02 09:36), всего редактировалось 2 раз(а)

cergo ®

Гроза морей

20055

Пост 02-Май-2013 09:15 (спустя 10 минут)

[Q] 

модерам - в Кинопоиск не нашел, вставил Кинотеатр.
[Профиль]  [ЛС] 

vovan200976

Флибустьер

Пост 02-Май-2013 09:31 (спустя 15 минут)

[Q] 

Хороший фильм ! Снаткина просто конфетка........ все ухожу в себя !!!!!
[Профиль]  [ЛС] 

cergo ®

Гроза морей

20055

Пост 02-Май-2013 09:37 (спустя 6 минут)

[Q] 

vovan200976, aa az
[Профиль]  [ЛС] 

Пост 02-Май-2013 09:53 (спустя 15 минут)

Топик был перенесен из форума Отечественные сериалы (Трюм) в форум Отечественные сериалы

kugesan
 

viktor41

Шкипер

Пост 23-Окт-2013 19:03 (спустя 5 месяцев 21 день)

[Q] 

Даниил Спиваковский на высоте в фильме ! az
[Профиль]  [ЛС] 
Показать сообщения:    
Ответить на тему

Текущее время: Сегодня 00:04

Часовой пояс: GMT + 4



Вы не можете начинать темы
Вы не можете отвечать на сообщения
Вы не можете редактировать свои сообщения
Вы не можете удалять свои сообщения
Вы не можете голосовать в опросах
Вы не можете прикреплять файлы к сообщениям
Вы не можете скачивать файлы

▼ Вниз