ML
     
  Уважаемый Гость!
Вы можете поддержать проект и зарегистрироваться у наших партнеров - онлайн-стратегия MyLands. При регистрации в игре Вы получите код, который сможете активировать после регистрации на pirat.ca и получить 1000 дублонов.

Ваш код:
c89b4b6523eaac3173e9a9c062ac1a19db575961
 
     

1941, 1942 / Сезон: 1,2 / Серии: 1-28 из 28 (Валерий Шалыга) [2009 - 2011 г., Военный, DVDRip]

Ответить на тему
 
Автор
Сообщение

Пост 02-Май-2013 16:55

[Q] 

cergo

Гроза морей

-1941, 1942Серии: 1-28 из 28-- Производство: Россия, Украина, PRO.TV, телеканал "Интер", канал "Россия"
Жанр: Военный
Год выпуска: 2009 г. / 2011 г.
Продолжительность: 28 х ~ 00:45:00
Мировая премьера: 4 мая 2009 / 2 мая 2011
Дата выхода DVD: 9 июля 2009, «CP-Digital» / 14 июля 2011, «CP-Digital»
Режиссер: Валерий Шалыга
-В ролях: Александр Пашков, Иван Лапин, Дарья Баранова, Ольга Олексий, Йоханес Габриель, Сергей Романюк, Владимир Горянский, Валентина Лосовская, Анатолий Котенёв, Ада Роговцева, Анатолий Ященко, Максим Максимюк, Владимир Башкиров, Свен Филлип, Сергей Стрельников, Хильмар Эйчхорн, Алексей Сиватский, Евгений Плиско-Куприн, Светлана Ткаченко, Инна Мирошниченко, Нина Касторф, Ольга Первеева, Галина Опанасенко, Григорий Боковенко, Юрий Мысенков, Дмитрий Махнич, Алексей Шевченков, Игорь Гнездилов, Андрей Павленко, Борис Георгиевский, Даниил Вулицкий, Руслан Сокольник, Дмитрий Сова, Николай Андрушко, Владислав Мамчур, Пётр Сова, Вячеслав Дудко, Андрей Шарапов-Описание: Недалеко от пограничной зоны стоит обычная деревня. В ней живут простые люди: они влюбляются, встречаются, женятся, занимаются домашним хозяйством, работают в поле. Но за закрытыми дверьми в домах сельских жителей кипят свои страсти. А особенно в семьях двух старых друзей Петра и Василия, которые собираются поженить своих детей. Свадьбу отгуляли с размахом - все село пригласили. Вот только семейная жизнь у молодых так и не успела начаться. На следующий день после торжества до деревни донеслись плохие вести: "Началась война!". Мужчины уходят на фронт, и женщины остаются одни, и все их мелкие склоки и ссоры сразу становятся ненужными и незначительными. Потому что теперь они должны поддерживать друг друга, выживать, чтобы их мужьям, сыновьям и отцам было к кому возвращаться с поля боя.-
Качество видео: DVDRip
Контейнер: AVI
Видео кодек: XivD
Аудио кодек: AC3 | MP3
Видео: 688x384 (1.79:1), 25 fps, XviD MPEG-4 ~1741 kbps avg, 0.26 bit/pixel | 720x400 (1.80:1), 25 fps, XviD build 50 ~1529 kbps avg, 0.21 bit/pixel
Аудио: 48 kHz, AC3 Dolby Digital, 3/2 (L,C,R,l,r) + LFE ch, ~448 kbps | 48 kHz, MPEG Layer 3, 2 ch, ~192.00 kbps avg
Cубтитры: отсутствуют
Общее
Полное имя : D:\1941, 1942\1941.12.serij.iz.12.2009.XviD.DVDRip.avi
Формат : AVI
Формат/Информация : Audio Video Interleave
Размер файла : 698 Мбайт
Продолжительность : 44 м.
Общий поток : 2199 Кбит/сек
Программа кодирования : FairUse Wizard - http://fairusewizard.com
Библиотека кодирования : The best and REALLY easy backup tool
Видео
Идентификатор : 0
Формат : MPEG-4 Visual
Профиль формата : Advanced [email protected]
Параметр BVOP формата : 1
Параметр QPel формата : Нет
Параметр GMC формата : Без точки перехода
Параметр матрицы формата : Default (H.263)
Режим смешивания : Сжатый битовый поток
Идентификатор кодека : XVID
Идентификатор кодека/Подсказка : XviD
Продолжительность : 44 м.
Битрейт : 1741 Кбит/сек
Ширина : 688 пикселей
Высота : 384 пикселя
Соотношение сторон : 16:9
Частота кадров : 25,000 кадров/сек
Цветовое пространство : YUV
Субдискретизация насыщенности : 4:2:0
Битовая глубина : 8 бит
Тип развёртки : Прогрессивная
Метод сжатия : С потерями
Бит/(Пиксели*Кадры) : 0.264
Размер потока : 552 Мбайт (79%)
Библиотека кодирования : XviD 1.1.0 (UTC 2005-11-22)
Аудио
Идентификатор : 1
Формат : AC-3
Формат/Информация : Audio Coding 3
Расширение режима : CM (complete main)
Параметр Endianness формата : Big
Идентификатор кодека : 2000
Продолжительность : 44 м.
Вид битрейта : Постоянный
Битрейт : 448 Кбит/сек
Каналы : 6 каналов
Расположение каналов : Front: L C R, Side: L R, LFE
Частота : 48,0 КГц
Битовая глубина : 16 бит
Метод сжатия : С потерями
Размер потока : 142 Мбайт (20%)
Выравнивание : Разделение по промежуткам
Продолжительность промежутка : 40 мс. (1,00 видеокадр)
Время предзагрузки промежутка : 500 мс.
Общее
Полное имя : D:\1941, 1942\1942.(1-16.serij.iz.16).2011.XviD.DVDRip.avi\1942.(01.serija.iz.16).2011.XviD.DVDRip.avi
Формат : AVI
Формат/Информация : Audio Video Interleave
Размер файла : 548 Мбайт
Продолжительность : 44 м.
Общий поток : 1731 Кбит/сек
Программа кодирования : VirtualDubMod 1.5.10.3 | www.virtualdub-fr.org || (build 2550/release)
Библиотека кодирования : VirtualDubMod build 2550/release
Видео
Идентификатор : 0
Формат : MPEG-4 Visual
Профиль формата : Advanced [email protected]
Параметр BVOP формата : 2
Параметр QPel формата : Нет
Параметр GMC формата : Без точки перехода
Параметр матрицы формата : Default (H.263)
Идентификатор кодека : XVID
Идентификатор кодека/Подсказка : XviD
Продолжительность : 44 м.
Битрейт : 1530 Кбит/сек
Ширина : 720 пикселей
Высота : 400 пикселей
Соотношение сторон : 16:9
Частота кадров : 25,000 кадров/сек
Цветовое пространство : YUV
Субдискретизация насыщенности : 4:2:0
Битовая глубина : 8 бит
Тип развёртки : Прогрессивная
Метод сжатия : С потерями
Бит/(Пиксели*Кадры) : 0.212
Размер потока : 484 Мбайт (88%)
Библиотека кодирования : XviD 1.2.1 (UTC 2008-12-04)
Аудио
Идентификатор : 1
Формат : MPEG Audio
Версия формата : Version 1
Профиль формата : Layer 3
Идентификатор кодека : 55
Идентификатор кодека/Подсказка : MP3
Продолжительность : 44 м.
Вид битрейта : Постоянный
Битрейт : 192 Кбит/сек
Каналы : 2 канала
Частота : 48,0 КГц
Метод сжатия : С потерями
Размер потока : 60,7 Мбайт (11%)
Выравнивание : Соединение по промежуткам
Продолжительность промежутка : 40 мс. (1,00 видеокадр)
Время предзагрузки промежутка : 504 мс.
Библиотека кодирования : LAME3.99r
Настройки программы : -m s -V 4 -q 2 -lowpass 18.6 -b 192
Download / Скачать

Хотите скачать бесплатно? Зарегистрируйтесь на сайте (ссылка на регистрацию). Pirat.ca - самый быстрый торрент трекер в рунете!

Как скачивать  ·   Что такое торрент  ·   Рейтинг и ограничения

Пост 02-Май-2013 17:47 (спустя 52 минуты)

Топик был перенесен из форума Отечественные сериалы (Трюм) в форум Отечественные сериалы

kugesan
 

pwsnik

Гроза морей

Пост 02-Май-2013 18:02 (спустя 1 час 7 минут)

[Q] 

cergo ,Большое человеческое Спасибо за подарок к 9 Мая!!!!!!!!!!!!!!!!!!!!!!!!!!!!!!!!!!!!!
[Профиль]  [ЛС] 

cergo ®

Гроза морей

20061

Пост 02-Май-2013 18:06 (спустя 4 минуты)

[Q] 

pwsnik, Принц Датский, AlexxS, aa az
[Профиль]  [ЛС] 

pwsnik

Гроза морей

Пост 02-Май-2013 18:58 (спустя 52 минуты)

[Q] 

[Профиль]  [ЛС] 

Принц Датский

Корсар

Пост 02-Май-2013 20:01 (спустя 1 час 3 минуты)

[Q] 

cergo, за Победу!!! az

_________________
[Профиль]  [ЛС] 

AlexxS

Шкипер

Пост 02-Май-2013 21:57 (спустя 1 час 55 минут)

[Q] 

Благодарю!!!
[Профиль]  [ЛС] 

AlexxS

Шкипер

Пост 02-Май-2013 22:02 (спустя 5 минут)

[Q] 

Благодарю!!!
[Профиль]  [ЛС] 

dimonpa

Гроза морей

Пост 27-Авг-2013 07:46 (спустя 3 месяца 24 дня)

[Q] 

Автору респект!!! Лови бочку
[Профиль]  [ЛС] 

mrdim-CHEHOV

Флибустьер

Пост 28-Янв-2014 21:14 (спустя 5 месяцев 1 день)

[Q] 

Автору респект!!! Пиратка рулез!!! теперь полный комплект...можно смотреть!

_________________
Все будет не так, как мы решим. Все будет тогда, когда мы решимся.
[Профиль]  [ЛС] 

mrdim-CHEHOV

Флибустьер

Пост 10-Фев-2014 21:54 (спустя 13 дней)

[Q] 

Эй, вернитесь на раздачу... Ой как стыдно-то... кто тут?

_________________
Все будет не так, как мы решим. Все будет тогда, когда мы решимся.
[Профиль]  [ЛС] 

okorm

889

Пост 28-Мар-2014 12:56 (спустя 1 месяц 17 дней)

[Q] 

Эй, вернитесь на раздачу... Не качает
[Профиль]  [ЛС] 

mrdim-CHEHOV

Флибустьер

Пост 10-Май-2014 18:02 (спустя 1 месяц 13 дней)

[Q] 

Кто здеся? Раздавать будем или как? пора закрыть раздачу

_________________
Все будет не так, как мы решим. Все будет тогда, когда мы решимся.
[Профиль]  [ЛС] 

alex denver71

Флибустьер

Пост 17-Ноя-2014 19:34 (спустя 6 месяцев 7 дней)

[Q] 

Автору респект!!! Первый сезон не че так,второй так себе,третий 2 серии посмотрел вообще ни о чем. bz
[Профиль]  [ЛС] 
Показать сообщения:    
Ответить на тему

Текущее время: Сегодня 22:32

Часовой пояс: GMT + 4



Вы не можете начинать темы
Вы не можете отвечать на сообщения
Вы не можете редактировать свои сообщения
Вы не можете удалять свои сообщения
Вы не можете голосовать в опросах
Вы не можете прикреплять файлы к сообщениям
Вы не можете скачивать файлы

▼ Вниз