ML
     
  Уважаемый Гость!
Вы можете поддержать проект и зарегистрироваться у наших партнеров - онлайн-стратегия MyLands. При регистрации в игре Вы получите код, который сможете активировать после регистрации на pirat.ca и получить 1000 дублонов.

Ваш код:
5af7de75d3db09b6a37bc8bab71b0e87ccde73d6
 
     

Легенды о Круге / Сезон: 1 / Серии: 1-4 (Тимур Кабулов) [2013 г., Драма, биографический, HDTV, 1080i]

Ответить на тему
 
Автор
Сообщение

Пост 21-Май-2013 10:04

[Q] 

vadim0525

Корсар

-Легенды о Круге-- Производство: Централ Партнершип
Жанр: Драма, биографический
Год выпуска: 2013 г.
Продолжительность: 00:45
Режиссер: Тимур Кабулов-В ролях: Юрий Кузнецов-Таeжный, Ольга Филимонова, Дарья Калмыкова, Диана Корсс, Александр Домогаров, Иван Добронравов, Александр Кузнецов, Сергей Газаров и другие.-Описание: Михаил Круг - известный автор и исполнитель песен. Его жизнь была яркой и насыщенной: концерты, гастроли, выход новых песен. Он очень любил друзей, хорошую компанию, жену и детей. Но смерть настигла его в самом расцвете творческой славы. Тайна гибели Михаила Круга до сих пор не раскрыта, убийца не найден. Это случилось почти десять лет назад, а песни его живут и по сей день.-Качество видео: HDTV
Контейнер: TS
Стандарт разрешения: 1080i
Видео кодек: AVC
Аудио кодек: MP2
Видео: 1920x1080 (16:9) 25.000 fps 7 838 Kbps, 0.151 bit/pixel
Аудио: MPEG Audio 48000Hz stereo 192 Кбит/сек
Cубтитры: отсутствуют
General
ID : 1 (0x1)
Complete name : J:\ВЫКЛАДКА\HDTV\Сериалы\Легенды о Круге (2013, Драма, Биографический, HDTV) (MYDIMKA)\01 серия.ts
Format : MPEG-TS
File size : 2.56 GiB
Duration : 43mn 15s
Overall bit rate mode : Variable
Overall bit rate : 8 479 Kbps
Video
ID : 2931 (0xB73)
Menu ID : 1 (0x1)
Format : AVC
Format/Info : Advanced Video Codec
Format profile : [email protected]
Format settings, CABAC : Yes
Format settings, ReFrames : 3 frames
Codec ID : 27
Duration : 43mn 15s
Bit rate : 7 866 Kbps
Width : 1 920 pixels
Height : 1 080 pixels
Display aspect ratio : 16:9
Frame rate : 25.000 fps
Color space : YUV
Chroma subsampling : 4:2:0
Bit depth : 8 bits
Scan type : MBAFF
Bits/(Pixel*Frame) : 0.152
Stream size : 2.38 GiB (93%)
Audio
ID : 2932 (0xB74)
Menu ID : 1 (0x1)
Format : MPEG Audio
Format version : Version 1
Format profile : Layer 2
Mode : Joint stereo
Mode extension : Intensity Stereo + MS Stereo
Codec ID : 3
Duration : 43mn 15s
Bit rate mode : Constant
Bit rate : 192 Kbps
Channel(s) : 2 channels
Sampling rate : 48.0 KHz
Compression mode : Lossy
Stream size : 59.4 MiB (2%)
Language : Russian
Text
ID : 2934 (0xB76)-888
Menu ID : 1 (0x1)
Format : Teletext Subtitle
Language : Russian
Menu
ID : 2930 (0xB72)
Menu ID : 1 (0x1)
Duration : 43mn 15s
List : 2931 (0xB73) (AVC) / 2932 (0xB74) (MPEG Audio, Russian) / 2934 (0xB76) ()
Language : / Russian
Download / Скачать

Хотите скачать бесплатно? Зарегистрируйтесь на сайте (ссылка на регистрацию). Pirat.ca - самый быстрый торрент трекер в рунете!

Как скачивать  ·   Что такое торрент  ·   Рейтинг и ограничения

Пост 21-Май-2013 10:48 (спустя 44 минуты)

Топик был перенесен из форума Отечественные сериалы (Трюм) в форум Отечественные сериалы

kugesan
 

Dazdranargon

Флибустьер

Пост 21-Май-2013 16:39 (спустя 6 часов)

[Q] 

Я хренею! Мало того, что шансонской пошлятины на радио целое фекалийное море, так теперь и в телевизор фановая труба проделана! Сериал о глоткодёре для тупого быдла и отбросов общества! Куда мир катится!!!!
!Виктор 1964 писал(а):

Давайте будем держаться в рамках приличия. Кому-то нравится сериал, кому-то нет. Пред на 7 дней.

_________________

[Профиль]  [ЛС] 

kugesan

56652

Пост 21-Май-2013 18:24 (спустя 1 час 44 минуты)

[Q] 

Dazdranargon, Если вы считаете что этот сериал:
для тупого быдла и отбросов общества!
То к кому вы причисляете себя любимого?
Это Вам должно быть стыдно после таких высказываний. Не нравится, проходите мимо.
А если серьезно, будете продолжать флуд не по теме, пойдете в баню.

_________________

В мире две бесконечности: вселенная и человеческая глупость - Альберт Эйнштен
«Можно вытащить человека из грязи, но нельзя вытащить грязь из человека»!
[Профиль]  [ЛС] 

Poruchik76

Штурман

276

Пост 29-Ноя-2013 00:52 (спустя 6 месяцев 7 дней)

[Q] 

Dazdranargon, Вы совершенно "правы". Гораздо "интересней" смотреть о том, как родил болгарин или о геронтофильной любви Максима, чем о жизни настоящего МУЖИКА.
vadim0525 , Спасибо.
Раздающему респект!
[Профиль]  [ЛС] 

alexhard

Штурман

Пост 18-Янв-2014 23:31 (спустя 1 месяц 19 дней)

[Q] 

бред какой то а не сериал(
[Профиль]  [ЛС] 
Показать сообщения:    
Ответить на тему

Текущее время: Сегодня 14:09

Часовой пояс: GMT + 4



Вы не можете начинать темы
Вы не можете отвечать на сообщения
Вы не можете редактировать свои сообщения
Вы не можете удалять свои сообщения
Вы не можете голосовать в опросах
Вы не можете прикреплять файлы к сообщениям
Вы не можете скачивать файлы

▼ Вниз