ML
     
  Уважаемый Гость!
Вы можете поддержать проект и зарегистрироваться у наших партнеров - онлайн-стратегия MyLands. При регистрации в игре Вы получите код, который сможете активировать после регистрации на pirat.ca и получить 1000 дублонов.

Ваш код:
a261790f23fb05d13d060bdee9cb70d1451a6d3d
 
     

Маршрут / Сезон: 1 / Серии: 8 из 8 (Владимир Фатьянов) [2007 г., приключения, DVDRip]

Ответить на тему
 
Автор
Сообщение

Пост 30-Май-2013 15:27

[Q] 

Ярослав96

Морской Волк

-Маршрут-- Производство: Россия
Жанр: приключения
Год выпуска: 2007 г.
Продолжительность: 00:50:00
Мировая премьера: 25 июнь 2007
Российская премьера: 25 июнь 2007
Дата выхода DVD: 11 июня 2009
Режиссер: Владимир Фатьянов-В ролях: Александр Абдулов, Игорь Лифанов, Елена Дробышева, Наталья Аринбасарова, Николай Ковбас, Яна Чигир, Алиса Богарт, Максим Шишков, Никита Тезов, Александр Соловьев-Описание: Фильм основан на реальных событиях. В сентябре 1941 года, когда немцы подступали к Крыму, из керченского музея эвакуировали клад, обнаруженнный при раскопках горы Митридат. Бесценный груз был направлен в партизанский отряд в горы Адыгеи. Однако об этом стало известно фашистской разведке и она отслеживала движение клада. Но он бесследно исчез. Только в середине 70-х некоторые из драгоценностей были найдены рядом с туристической тропой.
Поиски сокровищ возобновили органы госбезопасности, но найти ничего не удалось. Уже в наше время охоту за кладом продолжил один из бывших работников КГБ. Начал поиски и оставшийся в живых член немецкой спецкоманды.
В 70-х годах произошло одно трагическое событие. Примерно там же, где нашли остатки клада, на известном туристическом маршруте погибли 20 человек. Но нескольким туристам из группы удалось остаться в живых, их отыскали в горах инструкторы спасатели. И вот спустя годы один из уцелевших, уже с женой и двумя детьми, возвратился в Адыгею, чтобыпройти этот маршрут заново. В горах Кавказа он встретил того самого инструктора, который спас ему жизнь, и он согласился стать их проводником. Но по этому же маршруте движутся немецкие искатели клада и бывшие работники спецслужб.-
Качество видео: DVDRip
Контейнер: AVI
Видео кодек: XviD
Аудио кодек: MP3
Видео: 648x368, ~1601 kbps,25 fps
Аудио: 128 kbps, 2ch, 48 kHz
Cубтитры: отсутствуют
Общее
Полное имя : E:\Загрузки\Marshrut\Marshrut_e01.avi
Формат : AVI
Формат/Информация : Audio Video Interleave
Размер файла : 582 Мбайт
Продолжительность : 50 м.
Общий поток : 1601 Кбит/сек
Программа кодирования : VirtualDubMod 1.5.4.1 (build 2178/release)
Библиотека кодирования : VirtualDub build 28312/release
Видео
Идентификатор : 0
Формат : MPEG-4 Visual
Профиль формата : Advanced [email protected]
Параметр BVOP формата : 1
Параметр QPel формата : Нет
Параметр GMC формата : Без точки перехода
Параметр матрицы формата : Выборочная
Идентификатор кодека : XVID
Идентификатор кодека/Подсказка : XviD
Продолжительность : 50 м.
Битрейт : 1463 Кбит/сек
Ширина : 640 пикселей
Высота : 368 пикселей
Соотношение сторон : 1,739
Частота кадров : 25,000 кадров/сек
Цветовое пространство : YUV
Субдискретизация насыщенности : 4:2:0
Битовая глубина : 8 бит
Тип развёртки : Прогрессивная
Метод сжатия : С потерями
Бит/(Пиксели*Кадры) : 0.249
Размер потока : 532 Мбайт (91%)
Библиотека кодирования : XviD 1.2.1 (UTC 2008-12-04)
Аудио
Идентификатор : 1
Формат : MPEG Audio
Версия формата : Version 1
Профиль формата : Layer 3
Режим : Joint stereo
Расширение режима : MS Stereo
Идентификатор кодека : 55
Идентификатор кодека/Подсказка : MP3
Продолжительность : 50 м.
Вид битрейта : Постоянный
Битрейт : 128 Кбит/сек
Каналы : 2 канала
Частота : 48,0 КГц
Метод сжатия : С потерями
Размер потока : 46,6 Мбайт (8%)
Выравнивание : Соединение по промежуткам
Продолжительность промежутка : 40 мс. (1,00 видеокадр)
Время предзагрузки промежутка : 504 мс.
Библиотека кодирования : LAME3.98r
Настройки программы : -m j -V 4 -q 2 -lowpass 17 -b 128
Download / Скачать

Хотите скачать бесплатно? Зарегистрируйтесь на сайте (ссылка на регистрацию). Pirat.ca - самый быстрый торрент трекер в рунете!

Как скачивать  ·   Что такое торрент  ·   Рейтинг и ограничения



Последний раз редактировалось: Ярослав96 (2013-05-31 08:42), всего редактировалось 1 раз

cergo

Гроза морей

20051

Пост 30-Май-2013 17:33 (спустя 2 часа 6 минут)

[Q] 

[Профиль]  [ЛС] 

Пост 31-Май-2013 13:14 (спустя 19 часов)

Топик был перенесен из форума Отечественные сериалы (Трюм) в форум Отечественные сериалы

kugesan
 

CHARLI2236

1096

Пост 12-Сен-2013 12:30 (спустя 3 месяца 12 дней)

[Q] 

подключусь AntiZip 21

_________________
[Профиль]  [ЛС] 
Показать сообщения:    
Ответить на тему

Текущее время: Сегодня 20:03

Часовой пояс: GMT + 4



Вы не можете начинать темы
Вы не можете отвечать на сообщения
Вы не можете редактировать свои сообщения
Вы не можете удалять свои сообщения
Вы не можете голосовать в опросах
Вы не можете прикреплять файлы к сообщениям
Вы не можете скачивать файлы

▼ Вниз