ML
     
  Уважаемый Гость!
Вы можете поддержать проект и зарегистрироваться у наших партнеров - онлайн-стратегия MyLands. При регистрации в игре Вы получите код, который сможете активировать после регистрации на pirat.ca и получить 1000 дублонов.

Ваш код:
c89b4b6523eaac3173e9a9c062ac1a19db575961
 
     

Темные лабиринты прошлого / Серии: 1-4 из 4 (Олег Туранский) [2013 г., драма, триллер, SATRip]

Ответить на тему
 
Автор
Сообщение

Пост 14-Июл-2013 11:12

[Q] 

aleksejj

Корсар

-Темные лабиринты прошлого -- Производство: Украина, STAR Media
Жанр: драма, триллер
Год выпуска: 2013 г.
Продолжительность: 4 х 00:45:17
Режиссер: Олег Туранский
В ролях: Екатерина Варченко, Карина Разумовская, Дмитрий Суржиков, Александр Кобзарь, Дмитрий Тубольцев, Сергей Деревянко, Вера Кобзарь
Описание: Поссорившись с мужем, Елизавета уходит из дома, а сутки спустя, ее находят без сознания в лесу. В больнице девушке диагностируют амнезию. Лиза не помнит ни дома, ни мужа, но и то, и другое вызывает у нее подсознательный негатив. Кроме того, девушку начинают терзать бессвязные обрывки воспоминаний, которые она не в силах воспринимать адекватно...-Качество видео: SATRip
Контейнер: AVI
Видео кодек: DivX 5
Аудио кодек: MP3
Видео: 720x416 (1.73:1), 25 fps, DivX Codec 5.x or 6.x ~1593 kbps avg, 0.21 bit/pixel
Аудио: 48 kHz, MPEG Layer 3, 2 ch, ~128.00 kbps avg
Cубтитры: отсутствуют
Общее
Полное имя : F:\Temnye.labirinty.proshlogo.[pirat.ca]\Temnye.labirinty.proshlogo.1..avi
Формат : AVI
Формат/Информация : Audio Video Interleave
Размер файла : 586 Мбайт
Продолжительность : 47 м.
Общий поток : 1732 Кбит/сек
Название фильма : Temnye.labirinty.proshlogo.
Жанр : Drama/Romance
Программа кодирования : MEncoder SVN-r30881(20100311-gcc4.3.3)
Формат оригинала/Имя : Movie
Видео
Идентификатор : 0
Формат : MPEG-4 Visual
Профиль формата : [email protected]
Параметр BVOP формата : Нет
Параметр QPel формата : Нет
Параметр GMC формата : Без точки перехода
Параметр матрицы формата : Default (H.263)
Идентификатор кодека : DX50
Идентификатор кодека/Подсказка : DivX 5
Продолжительность : 47 м.
Битрейт : 1594 Кбит/сек
Ширина : 720 пикселей
Высота : 416 пикселей
Соотношение сторон : 16:9
Частота кадров : 25,000 кадров/сек
Цветовое пространство : YUV
Субдискретизация насыщенности : 4:2:0
Битовая глубина : 8 бит
Тип развёртки : Прогрессивная
Метод сжатия : С потерями
Бит/(Пиксели*Кадры) : 0.213
Размер потока : 539 Мбайт (92%)
Библиотека кодирования : Lavc52.58.0
Аудио
Идентификатор : 1
Формат : MPEG Audio
Версия формата : Version 1
Профиль формата : Layer 3
Режим : Joint stereo
Расширение режима : MS Stereo
Идентификатор кодека : 55
Идентификатор кодека/Подсказка : MP3
Продолжительность : 47 м.
Вид битрейта : Постоянный
Битрейт : 128 Кбит/сек
Каналы : 2 канала
Частота : 48,0 КГц
Метод сжатия : С потерями
Размер потока : 43,3 Мбайт (7%)
Выравнивание : Разделение по промежуткам
Продолжительность промежутка : 40 мс. (1,00 видеокадр)
Время предзагрузки промежутка : 500 мс.
Библиотека кодирования : LAME3.98
Download / Скачать

Хотите скачать бесплатно? Зарегистрируйтесь на сайте (ссылка на регистрацию). Pirat.ca - самый быстрый торрент трекер в рунете!

Как скачивать  ·   Что такое торрент  ·   Рейтинг и ограничения

Пост 14-Июл-2013 15:06 (спустя 3 часа)

Топик был перенесен из форума Отечественные сериалы (Трюм) в форум Отечественные сериалы

kugesan
 

vovan200976

Флибустьер

Пост 15-Июл-2013 21:23 (спустя 1 день 10 часов)

[Q] 

Екатерина Варченко ХАЧУ !!!!!!
[Профиль]  [ЛС] 
Показать сообщения:    
Ответить на тему

Текущее время: Сегодня 22:33

Часовой пояс: GMT + 4



Вы не можете начинать темы
Вы не можете отвечать на сообщения
Вы не можете редактировать свои сообщения
Вы не можете удалять свои сообщения
Вы не можете голосовать в опросах
Вы не можете прикреплять файлы к сообщениям
Вы не можете скачивать файлы

▼ Вниз