ML
     
  Уважаемый Гость!
Вы можете поддержать проект и зарегистрироваться у наших партнеров - онлайн-стратегия MyLands. При регистрации в игре Вы получите код, который сможете активировать после регистрации на pirat.ca и получить 1000 дублонов.

Ваш код:
f612af22ea70acf5cbe90707ac5a076d215f8f7f
 
     

Однажды в Одессе / Жизнь и приключения Мишки Япончика (Ceрии: 1-12 из 12) (Сергей Гинзбург) [2011] (драма, мелодрама) [ 2xDVD9] (Лицензия)

Ответить на тему
 
Автор
Сообщение

Пост 27-Дек-2011 15:21

[Q] 

RaSSeLBeatZ

Легенда

-Однажды в Одессе-Жизнь и приключения Мишки Япончика-
  • Дата выпуска: 2011
  • Жанр: драма, мелодрама
  • Страна: Россия
  • Продолжительность серии: 42 минуты
  • Перевод:
    • Оигинальный (Полное дублирование) [Лицензия]
  • Режиссер: Сергей Гинзбург
  • В ролях: Евгений Ткачук, Елена Шамова, Валентин Гафт, Римма Маркова, Всеволод Шиловский, Владимир Долинский, Алексей Филимонов, Вадим Норштейн, Илья Лыков, Игорь Арташонов, Артем Ткаченко, Александр Лазарев (младший), Игорь Савочкин, Сергей Марин (II), Олег Школьник, Ирина Токарчук, Валерий Бассэль, Екатерина Копанова, Яна Поплавская, Андрей Ургант, Александр Ильин, Павел Прилучный, Михаил Богдасаров
-Мишка Японец — не просто обычный налетчик с одесским колоритом. Стать королем воров, держать в страхе весь город, и одновременно быть народным любимцем мог только человек неординарный. Его популярность колоссальна — в нем видят «Робин Гуда», который радеет за народ, он утверждает свой «кодекс налетчика» — бедняков не грабить, не трогать врачей, юристов, артистов. Его налеты становятся все более артистичными и остроумными, это маленькие спектакли. Миша расчетлив, рационален, но у него широкая душа: он закатывает пиры для всей Молдаванки, снабжает деньгами безработных грузчиков, помогает деньгами и продуктами молодоженам, сиротам, бездомным и даже семьям жертв бандитских налетов.
Он пробыл Королем всего три года — с 1917 по 1919-й. Это были три самые яркие года из жизни Япончика, переполненные событиями, на которые у других не хватило бы целой жизни…
-
  • Качество:2xDVD9
  • Формат:DVD-Video
  • Видео кодек:MPEG2
  • Аудио кодек:AC-3
  • Видео:PAL 4:3 (720x576(0.300)) MPEG Video, 25,000 кадр/сек, 3108 Кбит/сек
  • Аудио 1:Русский дубляж : (Dolby AC3, 2 ch) 192 Кбит/сек, 48,0 КГц
  • Субтитры:НЕТ
--

Общее
Полное имя : G:\Новинки 2011\Odnazhdy.v.Odesse.2011.2xDVD9\DVD-1\VIDEO_TS\VTS_01_1.VOB
Формат : MPEG-PS
Размер файла : 1024 Мбайт
Продолжительность : 42 м.
Общий поток : 3367 Кбит/сек
Видео
Идентификатор : 224 (0xE0)
Формат : MPEG Video
Версия формата : Version 2
Профиль формата : [email protected]
Параметр BVOP формата : Да
Параметр матрицы формата : Выборочная
Продолжительность : 42 м.
Вид битрейта : Переменный
Битрейт : 3108 Кбит/сек
Максимальный битрейт : 7000 Кбит/сек
Ширина : 720 пикселей
Высота : 576 пикселей
Соотношение сторон : 16:9
Частота кадров : 25,000 кадров/сек
Стандарт вещания : PAL
Цветовое пространство : YUV
Субдискретизация насыщенности : 4:2:0
Битовая глубина : 8 бит
Тип развёртки : Чересстрочная
Порядок развёртки : Верхнее поле первое
Метод сжатия : С потерями
Бит/(Пиксели*Кадры) : 0.300
Размер потока : 945 Мбайт (92%)
Аудио
Идентификатор : 189 (0xBD)-128 (0x80)
Формат : AC-3
Формат/Информация : Audio Coding 3
Расширение режима : CM (complete main)
Режим смешивания : DVD-Video
Продолжительность : 42 м.
Вид битрейта : Постоянный
Битрейт : 192 Кбит/сек
Каналы : 2 канала
Расположение каналов : Front: L R
Частота : 48,0 КГц
Битовая глубина : 16 бит
Метод сжатия : С потерями
Размер потока : 58,4 Мбайт (6%)
-
Title:
Size: 7.42 Gb ( 7 782 112 KBytes ) - DVD-9
Enabled regions: 1, 2, 3, 4, 5, 6, 7, 8
VTS_01 :
Play Length: 05:05:51
Video: PAL 16:9 (720x576) VBR, Auto Letterboxed
Audio:
English (Dolby AC3, 2 ch)
Menu Video:
PAL 4:3 (720x576) VBR
Menu Audio:
Not specified (Dolby AC3, 2 ch)
Menu Subtitles:
Not specified
Menu Russian Language Unit :
Root Menu
-
Title:
Size: 7.58 Gb ( 7 947 986 KBytes ) - DVD-9
Enabled regions: 1, 2, 3, 4, 5, 6, 7, 8
VTS_01 :
Play Length: 05:05:40
Video: PAL 16:9 (720x576) VBR, Auto Letterboxed
Audio:
English (Dolby AC3, 2 ch)
Menu Video:
PAL 4:3 (720x576) VBR
Menu Audio:
Not specified (Dolby AC3, 2 ch)
Menu Subtitles:
Not specified
Menu Russian Language Unit :
Root Menu
-
Скриншоты меню
-
Скриншоты фильма
-
Download / Скачать

Хотите скачать бесплатно? Зарегистрируйтесь на сайте (ссылка на регистрацию). Pirat.ca - самый быстрый торрент трекер в рунете!

Как скачивать  ·   Что такое торрент  ·   Рейтинг и ограничения

Пост 29-Дек-2011 08:06 (спустя 1 день 16 часов)

Топик был перенесен из форума Сериалы в форум Отечественные сериалы

C2H5OH
 

Masiaf

Штурман

Пост 08-Фев-2012 16:36 (спустя 1 месяц 12 дней)

[Q] 

шикарный вид!
[Профиль]  [ЛС] 

BiOHAZARD

Корсар

503

Пост 17-Фев-2012 20:18 (спустя 9 дней)

[Q] 

[Профиль]  [ЛС] 

Алёха

Флибустьер

Пост 15-Апр-2014 13:45 (спустя 2 года 1 месяц)

[Q] 

чавой та скорость как у черепахи! вторые сутки не могу скачать
[Профиль]  [ЛС] 

Гатар

Морской Волк

130

Пост 22-Май-2014 12:09 (спустя 1 месяц 6 дней)

[Q] 

Как скачаю, помогу.
[Профиль]  [ЛС] 

Victorsalata

Корсар

Пост 09-Окт-2014 18:55 (спустя 4 месяца 18 дней)

[Q] 

Сериал нужно смотреть. Спасибо.
[Профиль]  [ЛС] 
Показать сообщения:    
Ответить на тему

Текущее время: Сегодня 00:26

Часовой пояс: GMT + 4



Вы не можете начинать темы
Вы не можете отвечать на сообщения
Вы не можете редактировать свои сообщения
Вы не можете удалять свои сообщения
Вы не можете голосовать в опросах
Вы не можете прикреплять файлы к сообщениям
Вы не можете скачивать файлы

▼ Вниз