ML
     
  Уважаемый Гость!
Вы можете поддержать проект и зарегистрироваться у наших партнеров - онлайн-стратегия MyLands. При регистрации в игре Вы получите код, который сможете активировать после регистрации на pirat.ca и получить 1000 дублонов.

Ваш код:
193c38d0130f05c24de871678ea3ac181461757d
 
     

Бомбила. Продолжение / Сезон: 1 / Серии: 1-24 из 24 (Владимир Виноградов, Михаил Вассербаум) [2013 г., криминал, драма, SATRip]

Ответить на тему
 
Автор
Сообщение

Пост 03-Сен-2013 12:24

[Q] 

aleksejj

Корсар

-Бомбила. Продолжение-- Производство: Россия
Жанр: криминал, драма
Год выпуска: 2013 г.
Продолжительность: 24 х ~ 00:46:00
Мировая премьера: 26 августа 2013
Режиссер: Владимир Виноградов, Михаил Вассербаум
В ролях: Дмитрий Миллер, Максим Щёголев, Анна Банщикова, Евгений Березовский, Олеся Судзиловская, Константин Стрельников, Бесо Гатаев, Александр Рубенчик, Радмила Рубенчик, Александр Мякушко, Савва Гусев, Роман Синицын, Татьяна Рыбинец, Андрей Коровниченко, Дмитрий Калистратов, Сергей Фролов (IV), Александр Феклистов, Игорь Филиппов, Дмитрий Мазуров, Андрей Белозеров, Александра Булычёва, Максим Юдин, Юлия Морозова
Описание: Свидетелем страшного ДТП, в котором гибнет молодая семья, становится Игнат Прохоров, друг главного героя Артема. Немногословный, привыкший больше делать, чем говорить, Игнат задерживает пьяного виновника аварии, который, пытаясь уйти от преследования, устраивает еще одно ДТП. Казалось бы, все ясно и даже отец водителя-убийцы, бывший прокурор Мошкевич признаёт вину сына… Но только до тех пор, пока он не узнаёт, чьи родственники погибшие пешеходы. Тогда он назначает виновным в ДТП Игната. Убедить в этом следствие и общественность ему по силам. Но Игнат и в безвыходном положении будет доказывать свою невиновность. Благодаря другу Артему, ему удастся спастись и от мести криминального авторитета, который потерял в аварии сына.

Качество видео: SATRip
Контейнер: AVI
Видео кодек: XviD
Аудио кодек: MP3
Видео: 720x400 (1.80:1), 25 fps, XviD build 50 ~1449 kbps avg, 0.20 bit/pixel
Аудио: 48 kHz, MPEG Layer 3, 2 ch, ~192.00 kbps avg
Cубтитры: отсутствуют
Общее
Полное имя : C:\Users\aleksejj\Videos\Bombila.Prodolzhenie.[pirat.ca]\Bombila.Prodolzhenie.01.seriya..avi
Формат : AVI
Формат/Информация : Audio Video Interleave
Размер файла : 550 Мбайт
Продолжительность : 46 м.
Общий поток : 1652 Кбит/сек
Программа кодирования : VirtualDubMod 1.5.10.3 | www.virtualdub-fr.org || (build 2550/release)
Библиотека кодирования : VirtualDubMod build 2550/release
Видео
Идентификатор : 0
Формат : MPEG-4 Visual
Профиль формата : Advanced [email protected]
Параметр BVOP формата : 1
Параметр QPel формата : Нет
Параметр GMC формата : Без точки перехода
Параметр матрицы формата : Default (H.263)
Идентификатор кодека : XVID
Идентификатор кодека/Подсказка : XviD
Продолжительность : 46 м.
Битрейт : 1450 Кбит/сек
Ширина : 720 пикселей
Высота : 400 пикселей
Соотношение сторон : 16:9
Частота кадров : 25,000 кадров/сек
Цветовое пространство : YUV
Субдискретизация насыщенности : 4:2:0
Битовая глубина : 8 бит
Тип развёртки : Прогрессивная
Метод сжатия : С потерями
Бит/(Пиксели*Кадры) : 0.201
Размер потока : 483 Мбайт (88%)
Библиотека кодирования : XviD 1.2.1 (UTC 2008-12-04)
Аудио
Идентификатор : 1
Формат : MPEG Audio
Версия формата : Version 1
Профиль формата : Layer 3
Идентификатор кодека : 55
Идентификатор кодека/Подсказка : MP3
Продолжительность : 46 м.
Вид битрейта : Постоянный
Битрейт : 192 Кбит/сек
Каналы : 2 канала
Частота : 48,0 КГц
Метод сжатия : С потерями
Размер потока : 64,0 Мбайт (12%)
Выравнивание : Соединение по промежуткам
Продолжительность промежутка : 40 мс. (1,00 видеокадр)
Время предзагрузки промежутка : 504 мс.
Библиотека кодирования : LAME3.98r
Настройки программы : -m s -V 4 -q 2 -lowpass 18.6 -b 192
Download / Скачать

Хотите скачать бесплатно? Зарегистрируйтесь на сайте (ссылка на регистрацию). Pirat.ca - самый быстрый торрент трекер в рунете!

Как скачивать  ·   Что такое торрент  ·   Рейтинг и ограничения



Последний раз редактировалось: aleksejj (2013-09-13 09:46), всего редактировалось 2 раз(а)

Пост 03-Сен-2013 18:02 (спустя 5 часов)

Топик был перенесен из форума Отечественные сериалы (Трюм) в форум Сериалы в эфире
erchine
 

aleksejj ®

Корсар

5324

Пост 06-Сен-2013 03:37 (спустя 2 дня 15 часов)

[Q] 


_________________
[Профиль]  [ЛС] 
Показать сообщения:    
Ответить на тему

Текущее время: Сегодня 18:06

Часовой пояс: GMT + 4



Вы не можете начинать темы
Вы не можете отвечать на сообщения
Вы не можете редактировать свои сообщения
Вы не можете удалять свои сообщения
Вы не можете голосовать в опросах
Вы не можете прикреплять файлы к сообщениям
Вы не можете скачивать файлы

▼ Вниз