ML
     
  Уважаемый Гость!
Вы можете поддержать проект и зарегистрироваться у наших партнеров - онлайн-стратегия MyLands. При регистрации в игре Вы получите код, который сможете активировать после регистрации на pirat.ca и получить 1000 дублонов.

Ваш код:
0ea1bf889af42fca5f67d0a391efb3400850ad7c
 
     

Ласточкино гнездо (1-12 из 12) [2012, мелодрама, SATRip-AVC]

Ответить на тему
 
Автор
Сообщение

Пост 15-Сен-2013 16:55

[Q] 

Пират

Ласточкино гнездо Год выхода: 2012
Производство: Россия
Продолжительность: 12 серий х 00:45
Жанр: Мелодрама
Режиссер: Дмитрий Тюрин
В ролях: Татьяна Арнтгольц, Юрий Стоянов, Наталия Вдовина (Чернова), Дмитрий Муляр, Иван Жидков, Катерина Шпица, Светлана Немоляева, Елена Плаксина, Надежда Маркина, Александр Козлов, Кирилл Гребенщиков, Глеб Сердюков, Ричард Бондарев, Настасья Самбурская, Елена Новикова (II), Дмитрий Готсдинер, Константин Крюков, Ольга Прохватыло, Александра Прокофьева, Марина Коняшкина, Анатолий Отраднов, Александр Зельский, Эльдар Трамов, Надежда Иванова
Описание: Для шестнадцатилетней выпускницы школы Иды не было никого роднее и ближе, чем ее мама Светлана. Но внезапно вся жизнь Иды рушится: ее мама скоропостижно умирает и оставляет дочку на попечение своей недалекой и жестокой сестры. После смерти матери Ида твердо решает стать врачом, чтобы спасать людей. Вскоре в жизни Иды появляется отец - известный детский писатель Денис Корнилов, который забирает девочку в роскошный дом в подмосковном Переделкино. Но и в новой семье девочка чувствует себя лишней. Отец полностью сосредоточен на своей работе и не замечает, как мачеха и сводная сестра притесняют ее. Единственной родственной душой Иды становится ее сводный брат Ромка. Между героями возникают серьезные чувства, но влюбленным приходится расстаться. Проходят годы, на долю героини выпадает множество испытаний, но Ида не позволяет судьбе сломить себя, она проявляет железный характер и добивается успеха. Ида становится известным врачом, выходит замуж за сына академика, у нее появляются дети. Однако потерянную когда-то в молодости большую любовь Ида не может забыть, несмотря ни на что.
Качество: SATRip-AVC
Формат: MKV
Видео кодек: H264
Аудио кодек: AC3
Видео: [email protected] 16:9, 25 fps, ~1500 kbps avg, 0.145 bit/pixel
Аудио: AC3, 48 kHz, 2 ch, 160 kbps avg
Общее:
Формат : Matroska
Версия формата : Version 2
Размер файла : 563 Мбайт
Продолжительность : 47 м.
Общий поток : 1662 Кбит/сек
Программа кодирования : mkvmerge v5.2.0 ('I can't explain') built on Dec 18 2011 18:12:03
Библиотека кодирования : libebml v1.2.3 + libmatroska v1.3.0
Видео
Идентификатор : 1
Формат : AVC
Формат/Информация : Advanced Video Codec
Профиль формата : [email protected]
Параметр CABAC формата : Да
Параметр ReFrames формата : 16 кадров
Идентификатор кодека : V_MPEG4/ISO/AVC
Продолжительность : 47 м.
Битрейт : 1500 Кбит/сек
Ширина : 720 пикселей
Высота : 576 пикселей
Соотношение сторон : 16:9
Частота кадров : 25,000 кадров/сек
Стандарт вещания : PAL
Цветовое пространство : YUV
Субдискретизация насыщенности : 4:2:0
Битовая глубина : 8 бит
Тип развёртки : Прогрессивная
Бит/(Пиксели*Кадры) : 0.145
Размер потока : 498 Мбайт (88%)
Библиотека кодирования : x264 core 120 r2120 0c7dab9
Настройки программы : cabac=1 / ref=16 / deblock=1:-1:-1 / analyse=0x3:0x133 / me=tesa / subme=11 / psy=1 / psy_rd=1.00:0.00 / mixed_ref=1 / me_range=32 / chroma_me=1 / trellis=2 / 8x8dct=1 / cqm=0 / deadzone=21,11 / fast_pskip=0 / chroma_qp_offset=-2 / threads=18 / sliced_threads=0 / nr=0 / decimate=1 / interlaced=0 / bluray_compat=0 / constrained_intra=0 / bframes=8 / b_pyramid=2 / b_adapt=2 / b_bias=0 / direct=3 / weightb=1 / open_gop=0 / weightp=2 / keyint=250 / keyint_min=25 / scenecut=40 / intra_refresh=0 / rc_lookahead=60 / rc=2pass / mbtree=1 / bitrate=1500 / ratetol=1.0 / qcomp=0.60 / qpmin=0 / qpmax=69 / qpstep=4 / cplxblur=20.0 / qblur=0.5 / vbv_maxrate=62500 / vbv_bufsize=78125 / nal_hrd=none / ip_ratio=1.40 / aq=2:1.00
Аудио
Идентификатор : 2
Формат : AC-3
Формат/Информация : Audio Coding 3
Расширение режима : CM (complete main)
Идентификатор кодека : A_AC3
Продолжительность : 47 м.
Вид битрейта : Постоянный
Битрейт : 160 Кбит/сек
Каналы : 2 канала
Расположение каналов : Front: L R
Частота : 48,0 КГц
Битовая глубина : 16 бит
Метод сжатия : С потерями
Размер потока : 54,2 Мбайт (10%)
Download / Скачать

Хотите скачать бесплатно? Зарегистрируйтесь на сайте (ссылка на регистрацию). Pirat.ca - самый быстрый торрент трекер в рунете!

Как скачивать  ·   Что такое торрент  ·   Рейтинг и ограничения

Пост 15-Сен-2013 18:02 (спустя 1 час 6 минут)

Топик был перенесен из форума Отечественные сериалы (Трюм) в форум Отечественные сериалы
erchine
 
Показать сообщения:    
Ответить на тему

Текущее время: Сегодня 00:38

Часовой пояс: GMT + 4



Вы не можете начинать темы
Вы не можете отвечать на сообщения
Вы не можете редактировать свои сообщения
Вы не можете удалять свои сообщения
Вы не можете голосовать в опросах
Вы не можете прикреплять файлы к сообщениям
Вы не можете скачивать файлы

▼ Вниз