ML
     
  Уважаемый Гость!
Вы можете поддержать проект и зарегистрироваться у наших партнеров - онлайн-стратегия MyLands. При регистрации в игре Вы получите код, который сможете активировать после регистрации на pirat.ca и получить 1000 дублонов.

Ваш код:
fcd618d94adc1456bccbde5047c9cd0930e4ae4d
 
     

Крутые повороты 1-12 серии из 12 (Марат Рафиков, Владимир Донсков) [2003 г., Боевик, Сериал, DVDRip]

Ответить на тему
 
Автор
Сообщение

Пост 16-Сен-2013 17:25

[Q] 

Пират

Крутые повороты
(12 серий из 12)
Год выпуска: 2003
Жанр: Боевик, Сериал
Продолжительность: 09:34::24
Режиссер: Марат Рафиков, Владимир Донсков, Сергей Осипьян, Андрей Лукашевич
В ролях: Евгений Сидихин, Александр Самойленко, Сергей Баталов, Юлия Чеснокова, Наталья Вдовина
Описание: Каждая серия представляет собой новеллу с напряженным действием, в основе которой лежит та или иная криминальная ситуация и очередной поступок главных героев. Сквозными линиями сериала проходит тема настоящей мужской дружбы, в которой много и героического, и комического, а также тема личной жизни героев, где есть "...и жизнь, и слезы, и любовь..."
Илья Орлов, по прозвищу монах, подполковник разведки ГРУ, после 15 лет службы прервал военную карьеру и... ушел в монастырь. Однако вскоре понял, что непротивление злу - не для него и вернулся к мирской жизни, поступив на работу таксистом. Рядом с ним - верный друг Гриша Пельменштейн, по прозвищу Пельмень - бывший философ, а ныне таксист. Он всегда приходит на помощь в трудную минуту. А таких минут в жизни Монаха немало: обладая повышенным чувством справедливости, романтик в душе, Илья Орлов каждый раз вступается за тех, кто попадает в беду.
Качество: DVDRip
Формат: AVI
Видео кодек: DivX
Аудио кодек: AC3
Видео: 720x368 (1.60:1), 25 fps, DivX Codec 5.1.1 ~1314 kbps avg, 0.198 bit/pixel
Аудио: 48 kHz, AC3, 6 ch, 448.00 kbps
Общее
Полное имя : E:\Раздачи\Krytue.povorotu(1-12.seriy.iz.12).2003.DivX.DVDRip\Krytue.povorotu.01.serija.iz.12.avi
Формат : AVI
Формат/Информация : Audio Video Interleave
Размер файла : 589 Мбайт
Продолжительность : 46 м.
Общий поток : 1771 Кбит/сек
Программа кодирования : VirtualDubModRus 1.5.10.2 (build 2540/release)
Библиотека кодирования : VirtualDubMod build 2540/release
Видео
Идентификатор : 0
Формат : MPEG-4 Visual
Параметр BVOP формата : 1
Параметр QPel формата : Нет
Параметр GMC формата : Без точки перехода
Параметр матрицы формата : Default (H.263)
Режим смешивания : Сжатый битовый поток
Идентификатор кодека : DX50
Идентификатор кодека/Подсказка : DivX 5
Продолжительность : 46 м.
Битрейт : 1314 Кбит/сек
Ширина : 720 пикселей
Высота : 368 пикселей
Соотношение сторон : 1,957
Частота кадров : 25,000 кадров/сек
Цветовое пространство : YUV
Субдискретизация насыщенности : 4:2:0
Битовая глубина : 8 бит
Тип развёртки : Прогрессивная
Метод сжатия : С потерями
Бит/(Пиксели*Кадры) : 0.198
Размер потока : 437 Мбайт (74%)
Библиотека кодирования : DivX 6.8.3-6.8.4 (UTC 2008-06-07)
Аудио
Идентификатор : 1
Формат : AC-3
Формат/Информация : Audio Coding 3
Расширение режима : CM (complete main)
Параметр Endianness формата : Big
Идентификатор кодека : 2000
Продолжительность : 46 м.
Вид битрейта : Постоянный
Битрейт : 448 Кбит/сек
Каналы : 6 каналов
Расположение каналов : Front: L C R, Side: L R, LFE
Частота : 48,0 КГц
Битовая глубина : 16 бит
Метод сжатия : С потерями
Размер потока : 149 Мбайт (25%)
Выравнивание : Разделение по промежуткам
Продолжительность промежутка : 40 мс. (1,00 видеокадр)
Время предзагрузки промежутка : 500 мс.
Язык : Russian


Download / Скачать

Хотите скачать бесплатно? Зарегистрируйтесь на сайте (ссылка на регистрацию). Pirat.ca - самый быстрый торрент трекер в рунете!

Как скачивать  ·   Что такое торрент  ·   Рейтинг и ограничения

Пост 16-Сен-2013 18:39 (спустя 1 час 13 минут)

Топик был перенесен из форума Отечественные сериалы (Трюм) в форум Отечественные сериалы
kugesan
 

viktor41

Шкипер

Пост 13-Окт-2013 22:11 (спустя 27 дней)

[Q] 

Большое спасибо ! Автору респект!!!
[Профиль]  [ЛС] 

ss80

Флибустьер

36

Пост 20-Май-2014 20:57 (спустя 7 месяцев 6 дней)

[Q] 

Спасибо!!!
[Профиль]  [ЛС] 

Гатар

Морской Волк

130

Пост 22-Май-2014 12:05 (спустя 1 день 15 часов)

[Q] 

Поддержу релиз.
[Профиль]  [ЛС] 
Показать сообщения:    
Ответить на тему

Текущее время: Сегодня 12:54

Часовой пояс: GMT + 4



Вы не можете начинать темы
Вы не можете отвечать на сообщения
Вы не можете редактировать свои сообщения
Вы не можете удалять свои сообщения
Вы не можете голосовать в опросах
Вы не можете прикреплять файлы к сообщениям
Вы не можете скачивать файлы

▼ Вниз