ML
     
  Уважаемый Гость!
Вы можете поддержать проект и зарегистрироваться у наших партнеров - онлайн-стратегия MyLands. При регистрации в игре Вы получите код, который сможете активировать после регистрации на pirat.ca и получить 1000 дублонов.

Ваш код:
e6008d9811a0b6a1393c3dc51ecd7bc35637bc21
 
     

На пути к сердцу (10 серий из 10) (Абай Карпыков) [2007, Мелодрама, DVDRip]

Ответить на тему
 
Автор
Сообщение

Пост 17-Сен-2013 00:56

[Q] 

Пират

На пути к сердцу
(10 серий из 10)
Год выпуска: 2007
Жанр: Мелодрама
Выпущено: Россия, Про-Синема продакшн
Продолжительность: 10 х ~ 00:50:23
Режиссер: Абай Карпыков
В ролях: Марат Башаров, Анатолий Белый, Мария Порошина, Сергей Шакуров, Роман Мадянов, Светлана Чуйкина, Владимир Зайцев, Дмитрий Щербина, Галина Польских, Виктор Бычков, Сергей Астахов, Агриппина Стеклова, Ксения Лаврова-Глинка, Владимир Носик, Эдуард Чекмазов, Игорь Гордин, Андрей Зибров, Сергей Власов, Юрий Шлыков, Саид Багов, Игорь Черневич, Людмила Давыдова (II), Владимир Гусев (II), Андрей Фролов, Сергей Греков, Сергей Угрюмов, Виктория Адельфина, Егор Фадеев, Василий Прокопьев, Олег Макаров, Ян Цапник, Александр Числов, Алексей Шевченков, Николай Стамбула, Валентина Талызина, Олеся Судзиловская, Карина Иванова, Наталья Гудкова, Каролина Грушка, Игорь Ясулович, Юлия Пересильд
О фильме: Герои картины — талантливые врачи, которые придумали уникальный прибор, позволяющий продлить жизнь человеческого сердца… Время действия фильма охватывает период с 1981 по 2001 годы. Два молодых талантливых кардиохирурга Алексей Ковалев и Герман Ипатов пытаются придумать конструкцию, которая позволит лечить ишемическую болезнь сердца без оперативного вмешательства. По иронии судьбы оба друга влюбляются в дочь своего наставника, профессора Солодовникова… Алексей – прирожденный ученый, готовый многим пожертвовать ради науки, в том числе спокойствием своих близких и личной жизнью. Герман – человек другого склада: трезвомыслящий и не столь одержимый. Понимая, что не так талантлив как Алексей, он решает идти другим путем.
Качество: DVDRip
Формат: AVI
Видео кодек: XviD
Аудио кодек: AC3
Видео: XviD, ~ 1200 Кбит/с, 704x432, 25 fps
Аудио: Русский (AC3, 6 ch, 384 Кбит/с, 48 kHz)
Общее
Полное имя : E:\Раздачи\Na.puti.k.serdcu.(10.serij.iz.10).2007.XviD.DVDRip\Na.puti.k.serdcu.(01.serija.iz.10).2007.XviD.DVDRip_pirat.ca.avi
Формат : AVI
Формат/Информация : Audio Video Interleave
Размер файла : 550 Мбайт
Продолжительность : 46 м.
Общий поток : 1650 Кбит/сек
Программа кодирования : VirtualDubMod 1.5.4.1 (build 2178/release)
Библиотека кодирования : VirtualDubMod build 2178/release
Видео
Идентификатор : 0
Формат : MPEG-4 Visual
Профиль формата : Advanced [email protected]
Параметр BVOP формата : 1
Параметр QPel формата : Нет
Параметр GMC формата : Без точки перехода
Параметр матрицы формата : Выборочная
Идентификатор кодека : XVID
Идентификатор кодека/Подсказка : XviD
Продолжительность : 46 м.
Битрейт : 1259 Кбит/сек
Ширина : 704 пикселя
Высота : 432 пикселя
Соотношение сторон : 16:10
Частота кадров : 25,000 кадров/сек
Цветовое пространство : YUV
Субдискретизация насыщенности : 4:2:0
Битовая глубина : 8 бит
Тип развёртки : Прогрессивная
Метод сжатия : С потерями
Бит/(Пиксели*Кадры) : 0.166
Размер потока : 420 Мбайт (76%)
Библиотека кодирования : XviD 1.2.0.dev47 (UTC 2006-11-01)
Аудио
Идентификатор : 1
Формат : AC-3
Формат/Информация : Audio Coding 3
Расширение режима : CM (complete main)
Параметр Endianness формата : Big
Идентификатор кодека : 2000
Продолжительность : 46 м.
Вид битрейта : Постоянный
Битрейт : 384 Кбит/сек
Каналы : 6 каналов
Расположение каналов : Front: L C R, Side: L R, LFE
Частота : 48,0 КГц
Битовая глубина : 16 бит
Метод сжатия : С потерями
Размер потока : 128 Мбайт (23%)
Выравнивание : Разделение по промежуткам
Продолжительность промежутка : 96 мс. (2,40 видеокадра)
Время предзагрузки промежутка : 96 мс.
Язык : Russian


Download / Скачать

Хотите скачать бесплатно? Зарегистрируйтесь на сайте (ссылка на регистрацию). Pirat.ca - самый быстрый торрент трекер в рунете!

Как скачивать  ·   Что такое торрент  ·   Рейтинг и ограничения

Пост 17-Сен-2013 06:55 (спустя 5 часов)

Топик был перенесен из форума Отечественные сериалы (Трюм) в форум Отечественные сериалы
erchine
 
Показать сообщения:    
Ответить на тему

Текущее время: Сегодня 02:05

Часовой пояс: GMT + 4



Вы не можете начинать темы
Вы не можете отвечать на сообщения
Вы не можете редактировать свои сообщения
Вы не можете удалять свои сообщения
Вы не можете голосовать в опросах
Вы не можете прикреплять файлы к сообщениям
Вы не можете скачивать файлы

▼ Вниз