ML
     
  Уважаемый Гость!
Вы можете поддержать проект и зарегистрироваться у наших партнеров - онлайн-стратегия MyLands. При регистрации в игре Вы получите код, который сможете активировать после регистрации на pirat.ca и получить 1000 дублонов.

Ваш код:
fcd618d94adc1456bccbde5047c9cd0930e4ae4d
 
     

Самара (1-14 серии из 14) (Станислав Дремов) [2012, Мелодрама, драма, HDTVRip]

Ответить на тему
 
Автор
Сообщение

Пост 17-Сен-2013 01:02

[Q] 

Пират

Самара
(1-14 серии из 14)
Год выпуска: 2012
Жанр: Мелодрама, драма
Производство: Россия, Всемирные Русские Студии
Продолжительность: 14 x ~ 00:45:00
Режиссер: Станислав Дремов
В ролях: Артур Смольянинов, Ольга Арнтгольц, Леонид Громов, Полина Филоненко, Евгения Добровольская, Владимир Симонов, Юрий Батурин, Ела Санько, Эвелина Бледанс, Луиза-Габриэла Бровина, Елена Коллегова, Александра Морозова, Оксана Семенова, Ольга Дибцева, Виктор Хатеновский, Дарина Фаддеева, Геннадий Матвеев, Серафима Низовская, Максим Фролов, Александр Кузьмин, Алиса Супрун, Денис Евневич
О фильме: Главный герой сериала – врач «Скорой помощи» Олег Самарин. Друзья и коллеги зовут его Самара. Бунтарь и выскочка, он спорит с начальством, отпускает шуточки в адрес коллег и пациентов, нарушает все правила и уставы! Но Самаре все сходит с рук. Он – хирург от Бога! Каждый день Самара со своей бригадой (фельдшером Леной и водителем Михалычем) помогает людям. Пациенты Олега – это пестрая галерея характеров и судеб и порой Самаре приходится лечить не только их тела, но и души. Но и самому Самаре есть что скрывать… У Самары есть тайна, раскрытие которой грозит ему потерей любимой работы. Но, как говорится, все тайное когда-нибудь становится явным…
Качество: HDTVRip
Формат: AVI
Видео кодек: XviD
Аудио кодек: AC3
Видео: XviD, ~ 1700 Кбит/с, 720x400, 25 fps
Аудио: AC3, 2 ch, 192 Кбит/с, 48 kHz
Общее
Полное имя : E:\Раздачи\Samara.HDTVRip\Samara.01.HDTVRip.avi
Формат : AVI
Формат/Информация : Audio Video Interleave
Размер файла : 598 Мбайт
Продолжительность : 43 м.
Общий поток : 1907 Кбит/сек
Название фильма : Samara.01.HDTVRip
Режиссёр : BiNMoViE
Программа кодирования : VirtualDubMod 1.5.10.2 (build 2540/release)
Библиотека кодирования : VirtualDubMod build 2540/release
Видео
Идентификатор : 0
Формат : MPEG-4 Visual
Профиль формата : Advanced [email protected]
Параметр BVOP формата : 2
Параметр QPel формата : Нет
Параметр GMC формата : Без точки перехода
Параметр матрицы формата : Default (H.263)
Режим смешивания : Сжатый битовый поток
Идентификатор кодека : XVID
Идентификатор кодека/Подсказка : XviD
Продолжительность : 43 м.
Битрейт : 1709 Кбит/сек
Ширина : 720 пикселей
Высота : 400 пикселей
Соотношение сторон : 5:4
Соотношение сторон в оригинале : 16:9
Частота кадров : 25,000 кадров/сек
Цветовое пространство : YUV
Субдискретизация насыщенности : 4:2:0
Битовая глубина : 8 бит
Тип развёртки : Прогрессивная
Метод сжатия : С потерями
Бит/(Пиксели*Кадры) : 0.237
Размер потока : 536 Мбайт (90%)
Библиотека кодирования : XviD 64
Аудио
Идентификатор : 1
Формат : AC-3
Формат/Информация : Audio Coding 3
Расширение режима : CM (complete main)
Параметр Endianness формата : Big
Идентификатор кодека : 2000
Продолжительность : 43 м.
Вид битрейта : Постоянный
Битрейт : 192 Кбит/сек
Каналы : 2 канала
Расположение каналов : Front: L R
Частота : 48,0 КГц
Битовая глубина : 16 бит
Метод сжатия : С потерями
Размер потока : 60,2 Мбайт (10%)
Выравнивание : Соединение по промежуткам
Продолжительность промежутка : 160 мс. (4,00 видеокадра)
Время предзагрузки промежутка : 640 мс.



Download / Скачать

Хотите скачать бесплатно? Зарегистрируйтесь на сайте (ссылка на регистрацию). Pirat.ca - самый быстрый торрент трекер в рунете!

Как скачивать  ·   Что такое торрент  ·   Рейтинг и ограничения

Пост 17-Сен-2013 06:57 (спустя 5 часов)

Топик был перенесен из форума Отечественные сериалы (Трюм) в форум Отечественные сериалы
erchine
 
Показать сообщения:    
Ответить на тему

Текущее время: Сегодня 12:54

Часовой пояс: GMT + 4



Вы не можете начинать темы
Вы не можете отвечать на сообщения
Вы не можете редактировать свои сообщения
Вы не можете удалять свои сообщения
Вы не можете голосовать в опросах
Вы не можете прикреплять файлы к сообщениям
Вы не можете скачивать файлы

▼ Вниз